Loading...
Error

Барсы (4 серии из 4) (Артём Мазунов) [2015 г., детектив, SATRip]

Статистика раздачи
Размер:  2,25 GB   |    Зарегистрирован:  1 год 6 месяцев   |    Скачан:  32 раза

Полного источника не было: 7 месяцев

Сидов:  0  |  0 KB/s  ]   Личеров:  0  |  0 KB/s  ]

* - сиды/пиры с внешних источников

   
 
Автор Сообщение

nemos Пол:Муж

18-Май-2015 20:03

Барсы (2015) SATRip [H.264] (серии 1-4 из 4)

Производство: Россия,«Анкор Синема»
Жанр: детектив

Режиссер: Артём Мазунов
Актеры: Константин Соловьёв, Олег Васильков, Сергей Коваленко, Михаил Павлик, Руслан Спояло, Максим Ковалевский, Сергей Ефремов, Григорий Кокоткин, Артур Бичахчян, Олег Метелев, Александра Прокофьева

Описание:
Трое верных друзей Егор, Мишка и Александр когда-то составляли гордость отряда спецназа под названием «Барсы». Трое лучших бойцов, трое отважных и смелых парней… Уже прошло много лет с момента их последнего задания, каждый давно живет своей жизнью и новой работой, но дружбу они сберегли, хотя встречаться стали редко. Егор работает егерем в заповеднике. Однажды он находит в лесу убитого журналиста. Все подозрения падают на сотрудников местного ЧОПа, которых накануне видели в этих краях. Однако местная полиция не спешит проводить расследование и не интересуется подозреваемыми. Тогда Егор планирует взять дело в свои руки. Он находит доказательства того, что в смерти журналиста виновен некто Василевский, столичный бизнесмен, который метит на пост мэра города. Погибший журналист обвинял того в серии заказных убийств, совершенных сотрудниками охранного предприятия. Егор намеревается передать компромат на предпринимателя честному и принципиальному полковнику Макарову...

Дата российской премьеры: 15 мая 2015 НТВ

Продолжительность: ~00:43:00 серия
Качество видео: SATRip

Видеокодек: AVC/H.264
Битрейт видео: ~1649 Кбит/сек
Размер кадра: 720x400
Аудиокодек: AC3 2.0
Битрейт аудио: 2 ch, 192 Кбит/с
Формат: MKV

Код:

Общее
Уникальный идентификатор : 217727743364833858071218393299936321002 (0xA3CCD68B8F67AD7B803C0134AA039DEA)
Полное имя : G:\Барсы\01 серия.mkv
Формат : Matroska
Версия формата : Version 2
Размер файла : 589 Мбайт
Продолжительность : 43 м.
Общий поток : 1878 Кбит/сек
Дата кодирования : UTC 2015-05-15 20:41:38
Программа кодирования : mkvmerge v7.6.0 ('Garden of Dreams') 32bit built on Feb 11 2015 00:18:47
Библиотека кодирования : libebml v1.3.1 + libmatroska v1.4.2

Видео
Идентификатор : 1
Формат : AVC
Формат/Информация : Advanced Video Codec
Профиль формата : [url=mailto:High@L3.1]High@L3.1[/url]
Параметр CABAC формата : Да
Параметр ReFrames формата : 9 кадров
Идентификатор кодека : V_MPEG4/ISO/AVC
Продолжительность : 43 м.
Битрейт : 1649 Кбит/сек
Ширина : 720 пикселей
Высота : 400 пикселей
Соотношение сторон : 16:9
Режим частоты кадров : Постоянный
Частота кадров : 25,000 кадров/сек
Цветовое пространство : YUV
Субдискретизация насыщенности : 4:2:0
Битовая глубина : 8 бит
Тип развёртки : Прогрессивная
Бит/(Пиксели*Кадры) : 0.229
Размер потока : 517 Мбайт (88%)
Библиотека кодирования : x264 core 144 r2525 40bb568
Настройки программы : cabac=1 / ref=9 / deblock=1:-3:-3 / analyse=0x3:0x113 / me=umh / subme=9 / psy=1 / psy_rd=1.00:0.20 / mixed_ref=1 / me_range=32 / chroma_me=0 / trellis=1 / 8x8dct=1 / cqm=0 / deadzone=21,11 / fast_pskip=1 / chroma_qp_offset=-3 / threads=6 / lookahead_threads=1 / sliced_threads=0 / nr=0 / decimate=0 / interlaced=0 / bluray_compat=0 / constrained_intra=0 / bframes=9 / b_pyramid=2 / b_adapt=1 / b_bias=0 / direct=1 / weightb=1 / open_gop=0 / weightp=2 / keyint=240 / keyint_min=24 / scenecut=40 / intra_refresh=0 / rc_lookahead=40 / rc=crf / mbtree=1 / crf=18.0 / qcomp=0.60 / qpmin=0 / qpmax=69 / qpstep=4 / ip_ratio=1.40 / aq=1:1.00
Default : Да
Forced : Нет
Основные цвета : BT.601 PAL
Характеристики трансфера : BT.470 System B, BT.470 System G
Коэффициенты матрицы : BT.601
colour_range : Limited

Аудио
Идентификатор : 2
Формат : AC-3
Формат/Информация : Audio Coding 3
Расширение режима : CM (complete main)
Параметр Endianness формата : Big
Идентификатор кодека : A_AC3
Продолжительность : 43 м.
Вид битрейта : Постоянный
Битрейт : 192 Кбит/сек
Каналы : 2 канала
Расположение каналов : Front: L R
Частота : 48,0 КГц
Битовая глубина : 16 бит
Метод сжатия : С потерями
Размер потока : 60,2 Мбайт (10%)
Default : Да
Forced : Нет
picpicpic

Этот торрент недоступен для скачивания без регистрации, однако доступен по публичной magnet-ссылке (источники с публичных трекеров). Перед использованием ссылки прочтите, пожалуйста Пользовательское соглашение, а также как можно дольше оставайтесь на раздаче! Для того, чтобы скачать сам торрент-файл (который видит больше источников), а также для того, чтобы поблагодарить релизера, вам необходимо зарегистрироваться. Если регистрироваться лень - вы можете также попробовать скачать релиз по нашим партнерским ссылкам ниже.

[underverse.su].t54662.torrent
Трекер: Зарегистрирован   [ 18.05.2015 20:03 ]  

Статус: проверено (by nemos at 18.05.2015 20:08)
Поблагодарили: 1 человек
Тип торрента: публичный - доступные источники с открытых трекеров: 
Размер: 2,25 GB (занимает 0,51 DVDR, для записи нужно 1 болванка DVDR/RW)
 
 

val.s.g Пол:Муж

13-Июн-2015 06:49

Спасибо за хороший релиз.

Яндекс.Метрика powered by Sphinx


В Н И М А Н И Е
Сайт не распространяет и не хранит электронные версии произведений, а лишь бесплатно и без коммерческой выгоды (не требуя взамен платы,
SMS и т.д.) предоставляет доступ к создаваемому пользователями каталогу ссылок на торрент-файлы, которые содержат только списки хеш-сумм.
Убедительная просьба с жалобами обращаться напрямую к пользователю, разместившему торрент файл.

Вверх