Loading...
Error

Дорога на Берлин (Сергей Попов ) [2015 г., военный, драма, DVDRip]

Статистика раздачи
Размер:  1,37 GB   |    Зарегистрирован:  1 год 6 месяцев   |    Скачан:  107 раз

Полного источника не было: 28 дней

Сидов:  0  |  0 KB/s  ]   Личеров:  0  |  0 KB/s  ]

* - сиды/пиры с внешних источников

   
 
Автор Сообщение

nemos Пол:Муж

18-Май-2015 18:57

Дорога на Берлин


Год выпуска: 2015
Жанр: военный, драма
Страна: Россия
Режиссер: Сергей Попов
В ролях: Юрий Борисов, Амир Абдыкалыков, Мария Карпова (Мария), Максим Демченко, Александр Новик, Артем Лебедев, Андрей Дерюгин (красноармеец в окопе)

Сюжет фильма:
Действие фильма происходит в Великую Отечественную войну. Главные герои - лейтенант Огарков и рядовой Джурабаев - молодые люди, выходцы из разных союзных республик, разные по характеру и жизненным позициям, но объединенные общей целью. В основе фильма лежат их сложные отношения и поступки, продиктованные фоном страшных событий войны. Это история о человеческих взаимоотношениях, истинных нравственных ценностях, долге перед Родиной, близкими и самим собой.


Качество видео: DVDRip

Продолжительность: 01:22:00
Формат: AVI
Видео: XviD, 720x384, 1 922 kbps
Аудио: русский, AC3 5.1, 448 kbps

Код:

E:\Фильмы-1\D0P0ga.Ha.bePL1H.2O15.O.DVDRip.1400MB.avi
   General
      Complete name : E:\Фильмы-1\D0P0ga.Ha.bePL1H.2O15.O.DVDRip.1400MB.avi
      Format : AVI
      Format/Info : Audio Video Interleave
      File size : 1.37 GiB
      Duration : 1h 22mn
      Overall bit rate : 2 379 Kbps
      Writing application : VirtualDubMod 1.5.10.3 | www.virtualdub-fr.org || (build 2550/release)
      Writing library : VirtualDubMod build 2550/release
   Video #0
      ID : 0
      Format : MPEG-4 Visual
      Format profile : Advanced Simple@L5
      Format settings, BVOP : 2
      Format settings, QPel : No
      Format settings, GMC : No warppoints
      Format settings, Matrix : Default (H.263)
      Codec ID : XVID
      Codec ID/Hint : XviD
      Duration : 1h 22mn
      Bit rate : 1 922 Kbps
      Width : 720 pixels
      Height : 384 pixels
      Display aspect ratio : 1.85:1
      Frame rate : 25.000 fps
      Color space : YUV
      Chroma subsampling : 4:2:0
      Bit depth : 8 bits
      Scan type : Progressive
      Compression mode : Lossy
      Bits/(Pixel*Frame) : 0.278
      Stream size : 1.11 GiB (81%)
      Writing library : XviD 65
   Audio #1
      ID : 1
      Format : AC-3
      Format/Info : Audio Coding 3
      Mode extension : CM (complete main)
      Format settings, Endianness : Big
      Codec ID : 2000
      Duration : 1h 22mn
      Bit rate mode : Constant
      Bit rate : 448 Kbps
      Channel(s) : 6 channels
      Channel positions : Front: L C R, Side: L R, LFE
      Sampling rate : 48.0 KHz
      Bit depth : 16 bits
      Compression mode : Lossy
      Stream size : 264 MiB (19%)
      Alignment : Split accross interleaves
      Interleave, duration : 40 ms (1.00 video frame)
      Interleave, preload duration : 500 ms
picpicpicpicpicpicpic
Для увеличения картинки щелкните мышкой по превью

Этот торрент недоступен для скачивания без регистрации, однако доступен по публичной magnet-ссылке (источники с публичных трекеров). Перед использованием ссылки прочтите, пожалуйста Пользовательское соглашение, а также как можно дольше оставайтесь на раздаче! Для того, чтобы скачать сам торрент-файл (который видит больше источников), а также для того, чтобы поблагодарить релизера, вам необходимо зарегистрироваться. Если регистрироваться лень - вы можете также попробовать скачать релиз по нашим партнерским ссылкам ниже.

[underverse.su].t54661.torrent
Трекер: Зарегистрирован   [ 18.05.2015 18:57 ]  

Статус: проверено (by nemos at 18.05.2015 19:00)
Поблагодарили: 4 человека
Тип торрента: публичный - доступные источники с открытых трекеров: 
Размер: 1,37 GB (занимает 0,31 DVDR, для записи нужно 1 болванка DVDR/RW)
 
 
Похожие темы
Форум Тема Автор Торрент Отв. Посл. сооб.
xUSSR сериалы Дорога на остров Пасхи / Сезон: 1 Серии: 1-16 из 16 (Всеволод Аравин) [2012 г., драма, мелодрама, криминал, DVB] yuriy1920
0 | 0

2 | 711

0

01.06.2012 19:16

xUSSR сериалы Дорога на остров Пасхи [01 - 16 из 16] (Всеволод Аравин) [2012 г., драма, мелодрама, криминал, SatRip] nemos
4 | 6

0 | 928

9

09.07.2012 10:39

Архив Дорога на Эльдорадо / The Road to El Dorado (Бибо Бержерон, Уилл Финн, Дон Пол) [2000 г., комедия, приключения, семейный, мультфильм, DVDRip] NMZ
0 | 0

3 | 1721

2

08.10.2010 21:24

val.s.g Пол:Муж

08-Июн-2015 05:50

Спасибо за хороший фильм.

sslenderrrr Пол:Муж

22-Фев-2016 07:19

Спасибо)))

Яндекс.Метрика powered by Sphinx


В Н И М А Н И Е
Сайт не распространяет и не хранит электронные версии произведений, а лишь бесплатно и без коммерческой выгоды (не требуя взамен платы,
SMS и т.д.) предоставляет доступ к создаваемому пользователями каталогу ссылок на торрент-файлы, которые содержат только списки хеш-сумм.
Убедительная просьба с жалобами обращаться напрямую к пользователю, разместившему торрент файл.

Вверх