Loading...
Error

Чёрная река (1-8 серии из 8) (Стас Иванов) [2015 г., боевик, SatRip]

Статистика раздачи
Размер:  4,3 GB   |    Зарегистрирован:  1 год 6 месяцев   |    Скачан:  59 раз

Полного источника не было: 1 час 52 минуты

Сидов:  0  |  0 KB/s  ]   Личеров:  0  |  0 KB/s  ]

* - сиды/пиры с внешних источников

   
 
Автор Сообщение

nemos Пол:Муж

18-Май-2015 17:35

Черная река


Год выпуска: 2015
Жанр: боевик
Страна: Россия
Режиссер: Стас Иванов
В ролях: Павел Трубинер (Ковалев), Анастасия Стежко (Лена), Владимир Селезнев (Лаврентьев), Семён Шкаликов (Саша), Антонина Комиссарова (Вера), Павел Делонг (Верийский), Дарья Повереннова (Катя), Кирилл Каганович (Филипп), Анастасия Сорокина (Наташа), Юрий Цурило (Буянов), Ерболат Тогузаков (Монхэ), Роза Хайруллина (Тамара)

Сюжет фильма:
До недавних пор небольшой городок Белогорск, который расположен посреди бескрайних просторов Сибири , ничем не отличался от других промышленных городков и поселков. Спокойствию внезапно наступает конец, когда при никому непонятных обстоятельствах исчезает целая вахта местных нефтяников. Если бы один или два рабочих, то никто бы и не поднимал шума, спихнули бы все на некую случайность и забыли бы уже на следующий день, но это целая смена работников, которые долгое время работали в этой местности на одном из нефтяных месторождений и прекрасно знают здешние края , а потому точно не могли заблудиться. Первыми об этом загадочном инциденте узнают руководители нефтедобывающей компании «Байкал - нефть», которые прекрасно понимают, насколько негативные последствия для их компании будет иметь огласка этой странной и в чем-то даже пугающей истории.
В высоких кабинетах сразу же принимается решение скрыть факт исчезновения, но по городу уже начинают распространяться страшные слухи. Местный люд не сомневается, что кто-то напал на вахтеров, другой разумной причины быть не может. Медлят с расследованием и здешние правоохранители, которым московское начальство ясно дало понять, что резонансное дело нужно спустить на тормозах, иначе полетят чьи-то головы. Собственно говоря, поэтому никто из полицейских и не суетится, выжидая и теряя драгоценные часы.
А в это же время из Москвы в командировку в Белогорск собирается внештатный сотрудник этой самой нефтяной компании Алексей Ковалев, которому приказано разобраться в причинах исчезновения группы работников, но сделать это так, чтобы не поднимать лишнего шума и лишний раз не тревожить местное население, которое и без того на нервах. Прибыв на место, Ковалев начинает искать хотя бы какие-то зацепки, которые могли бы пролить свет на эту темную историю.
Буквально в первый же день пребывания в Белогорске внимание Алексея приковывает молодая женщина, которая живет рядом. Оказывается, Лена несколько лет назад приехала в этот далекий поселок с уютной Москвы вовсе не потому, что ей захотелось сменить обстановку и сбежать из мегаполиса, а чтобы самостоятельно разыскать бесследно пропавшего в тайге при не менее загадочных обстоятельствах мужа. Поиски не дали никакого результата, но Лена почему-то не спешит возвращаться в столицу, где ее ждут родные и знакомые.
Не останавливаясь ни на минуту в своем расследовании, Ковалев вскоре понимает, что исчезновение супруга этой молодой женщины и недавняя пропажа целой группы сотрудников компании между собой чем-то да и связаны. Подобная мысль приходит в голову и Лене, которая надеется, что теперь, когда она не одинока в своих поисках, им удастся узнать правду об этих событиях. Но готова ли она услышать ее и не пожалеет ли, что не убежала отсюда еще 2 года назад?
Ковалев начинает понимать, что недавнее исчезновение нефтяников и пропажа мужа Лены - Сергея, как-то связаны между собой. Лена начинает чувствовать, что с появлением Ковалева она впервые за долгие два года близка к разгадке исчезновения Сергея, но готова ли Лена узнать правду?


Качество видео: SatRip

Продолжительность: 00:45:45 (Серия)
Формат: AVI
Видео: XviD, 720x400, 1 479 kbps
Аудио: русский, AC3 2.0, 192 kbps

Код:

E:\Фильмы-1\Ciornaja.reka.2015.SATRip.Files-x\01.Ciornaja.reka.2015.SATRip.Files-x.avi
   General
      Complete name : E:\Фильмы-1\Ciornaja.reka.2015.SATRip.Files-x\01.Ciornaja.reka.2015.SATRip.Files-x.avi
      Format : AVI
      Format/Info : Audio Video Interleave
      File size : 550 MiB
      Duration : 45mn 45s
      Overall bit rate : 1 681 Kbps
      Writing application : VirtualDubMod 1.5.10.2 (build 2542/release)
      Writing library : VirtualDubMod build 2542/release
   Video #0
      ID : 0
      Format : MPEG-4 Visual
      Format profile : Advanced Simple@L5
      Format settings, BVOP : 1
      Format settings, QPel : No
      Format settings, GMC : No warppoints
      Format settings, Matrix : Custom
      Codec ID : XVID
      Codec ID/Hint : XviD
      Duration : 45mn 45s
      Bit rate : 1 479 Kbps
      Width : 720 pixels
      Height : 400 pixels
      Display aspect ratio : 16:9
      Frame rate : 25.000 fps
      Color space : YUV
      Chroma subsampling : 4:2:0
      Bit depth : 8 bits
      Scan type : Progressive
      Compression mode : Lossy
      Bits/(Pixel*Frame) : 0.205
      Stream size : 484 MiB (88%)
      Writing library : XviD 73
   Audio #1
      ID : 1
      Format : AC-3
      Format/Info : Audio Coding 3
      Mode extension : CM (complete main)
      Format settings, Endianness : Big
      Codec ID : 2000
      Duration : 45mn 45s
      Bit rate mode : Constant
      Bit rate : 192 Kbps
      Channel(s) : 2 channels
      Channel positions : Front: L R
      Sampling rate : 48.0 KHz
      Bit depth : 16 bits
      Compression mode : Lossy
      Stream size : 62.8 MiB (11%)
      Alignment : Split accross interleaves
      Interleave, duration : 40 ms (1.00 video frame)
      Interleave, preload duration : 500 ms
picpicpic
Для увеличения картинки щелкните мышкой по превью

Этот торрент недоступен для скачивания без регистрации, однако доступен по публичной magnet-ссылке (источники с публичных трекеров). Перед использованием ссылки прочтите, пожалуйста Пользовательское соглашение, а также как можно дольше оставайтесь на раздаче! Для того, чтобы скачать сам торрент-файл (который видит больше источников), а также для того, чтобы поблагодарить релизера, вам необходимо зарегистрироваться. Если регистрироваться лень - вы можете также попробовать скачать релиз по нашим партнерским ссылкам ниже.

[underverse.su].t54792.torrent
Трекер: Зарегистрирован   [ 23.05.2015 16:27 ]  

Статус: проверено (by nemos at 23.05.2015 16:28)
Поблагодарили: 6 человек
Тип торрента: публичный - доступные источники с открытых трекеров: 
Размер: 4,3 GB (занимает 0,98 DVDR, для записи нужно 1 болванка DVDR/RW)
 
 


Последний раз редактировалось: nemos (23.05.2015 16:27), всего редактировалось 2 раз(а)

nemos Пол:Муж

19-Май-2015 16:59

Раздача обновлена! Добавлена серия:8

Яндекс.Метрика powered by Sphinx


В Н И М А Н И Е
Сайт не распространяет и не хранит электронные версии произведений, а лишь бесплатно и без коммерческой выгоды (не требуя взамен платы,
SMS и т.д.) предоставляет доступ к создаваемому пользователями каталогу ссылок на торрент-файлы, которые содержат только списки хеш-сумм.
Убедительная просьба с жалобами обращаться напрямую к пользователю, разместившему торрент файл.

Вверх