Loading...
Error

Ла бамба / La Bamba (Луис Валдез / Luis Valdez) [1987 г., драма, биография, музыка, BDRip] MVO + DVO (Ukr) + Original + Sub (Rus,Eng) HQ Underverse

Статистика раздачи
Размер:  2,18 GB   |    Зарегистрирован:  1 год 6 месяцев   |    Скачан:  13 раз
Сидов:  1  |  0 KB/s  ]   Личеров:  0  |  0 KB/s  ]

* - сиды/пиры с внешних источников

   
 
Автор Сообщение

HQ Underverse 

15-Май-2015 11:13

Ла бамба / La Bamba


Год выпуска: 1987
Жанр: драма, биография, музыка
Страна: США
Режиссер: Луис Валдез / Luis Valdez
В ролях: Лу Даймонд Филлипс, Эсай Моралес, Розанна ДеСото, Элизабет Пенья, Даниэль фон Цернек, Джо Пантольяно, Рик Деес, Маршалл Креншоу, Ховард Хантсберри, Брайан Сетцер
Сюжет фильма:
Жизнь звезды рок-н-ролла Ричи Валенса была трагически короткой, но миллионы людей сохранили память о нем. В конце 50-х он заставил броситься в пляс всю Америку, а самые известные его хиты «Ла Бамба» и «Донна» до сих пор зажигают сердца людей и не дают сидеть на месте… Простой работник фермы Ричи Валенс был одержим музыкой. Все его мечты осуществлялись. Его ждала головокружительная карьера, но жизнь юноши оборвалась, когда ему было всего 17 лет…

  • Мировая премьера: 24 июля 1987

/
Качество видео: BDRip

Продолжительность: 01:48:33
Формат: avi
Видео: XviD, 720x384, 2212 kbps
Аудио #1: русский, многоголосый закадровый [профессиональный], AC3 2.0, 192 kbps
Аудио #2: английский, оригинал, AC3 5.1, 448 kbps
Аудио #3: украинский, двухголосый закадровый [профессиональный, 1+1], AC3 2.0, 192 kbps (отдельным файлом)
Субтитры #1: внешние, SRT, русский
Субтитры #2: внешние, SRT, английский

Семпл: http://multi-up.com/1048652

Релиз группы:

Код:

General
Complete name                    : D:\Video\Movies\Releases\La.Bamba.1987.BDRip.XviD.AC3.Rus.MVO.Eng.O.HQ.Underverse.avi
Format                           : AVI
Format/Info                      : Audio Video Interleave
Format profile                   : OpenDML
File size                        : 2.18 GiB
Duration                         : 1h 48mn
Overall bit rate                 : 2 871 Kbps
Writing application              : VirtualDubMod 1.5.10.3 | www.virtualdub-fr.org || (build 2550/release)
Writing library                  : VirtualDubMod build 2550/release

Video
ID                               : 0
Format                           : MPEG-4 Visual
Format profile                   : Streaming Video@L1
Format settings, BVOP            : Yes
Format settings, QPel            : No
Format settings, GMC             : No warppoints
Format settings, Matrix          : Custom
Codec ID                         : XVID
Codec ID/Hint                    : XviD
Duration                         : 1h 48mn
Bit rate                         : 2 213 Kbps
Width                            : 720 pixels
Height                           : 384 pixels
Display aspect ratio             : 1.875
Frame rate                       : 23.976 fps
Resolution                       : 24 bits
Colorimetry                      : 4:2:0
Scan type                        : Progressive
Bits/(Pixel*Frame)               : 0.334
Stream size                      : 1.68 GiB (77%)
Writing library                  : XviD 66

Audio #1
ID                               : 1
Format                           : AC-3
Format/Info                      : Audio Coding 3
Codec ID                         : 2000
Duration                         : 1h 48mn
Bit rate mode                    : Constant
Bit rate                         : 192 Kbps
Channel(s)                       : 2 channels
Channel positions                : L R
Sampling rate                    : 48.0 KHz
Stream size                      : 149 MiB (7%)
Alignment                        : Split accross interleaves
Interleave, duration             : 42 ms (1.00 video frame)
Interleave, preload duration     : 500 ms
Title                            : Russian MVO

Audio #2
ID                               : 2
Format                           : AC-3
Format/Info                      : Audio Coding 3
Codec ID                         : 2000
Duration                         : 1h 48mn
Bit rate mode                    : Constant
Bit rate                         : 448 Kbps
Channel(s)                       : 6 channels
Channel positions                : Front: L C R, Surround: L R, LFE
Sampling rate                    : 48.0 KHz
Stream size                      : 348 MiB (16%)
Alignment                        : Split accross interleaves
Interleave, duration             : 42 ms (1.00 video frame)
Interleave, preload duration     : 500 ms
Title                            : English

General
Complete name                    : D:\Video\Movies\Releases\La.Bamba.1987.BDRip.XviD.AC3.Rus.MVO.Eng.O.HQ.Underverse.Ukr.ac3
Format                           : AC-3
Format/Info                      : Audio Coding 3
File size                        : 149 MiB
Duration                         : 1h 48mn
Overall bit rate                 : 192 Kbps

Audio
Format                           : AC-3
Format/Info                      : Audio Coding 3
Duration                         : 1h 48mn
Bit rate mode                    : Constant
Bit rate                         : 192 Kbps
Channel(s)                       : 2 channels
Channel positions                : L R
Sampling rate                    : 48.0 KHz
Stream size                      : 149 MiB (100%)

picpicpicpic
Для увеличения картинки щелкните мышкой по превью

Этот торрент недоступен для скачивания без регистрации, однако доступен по публичной magnet-ссылке (источники с публичных трекеров). Перед использованием ссылки прочтите, пожалуйста Пользовательское соглашение, а также как можно дольше оставайтесь на раздаче! Для того, чтобы скачать сам торрент-файл (который видит больше источников), а также для того, чтобы поблагодарить релизера, вам необходимо зарегистрироваться. Если регистрироваться лень - вы можете также попробовать скачать релиз по нашим партнерским ссылкам ниже.

[underverse.su].t54584.torrent
Трекер: Зарегистрирован   [ 15.05.2015 11:23 ]  

Статус: проверено (by Паукан at 15.05.2015 11:46)
Поблагодарили: 1 человек
Тип торрента: публичный - доступные источники с открытых трекеров: 
Размер: 2,18 GB (занимает 1/2 DVDR, для записи нужно 1 болванка DVDR/RW)
 
 

Яндекс.Метрика powered by Sphinx


В Н И М А Н И Е
Сайт не распространяет и не хранит электронные версии произведений, а лишь бесплатно и без коммерческой выгоды (не требуя взамен платы,
SMS и т.д.) предоставляет доступ к создаваемому пользователями каталогу ссылок на торрент-файлы, которые содержат только списки хеш-сумм.
Убедительная просьба с жалобами обращаться напрямую к пользователю, разместившему торрент файл.

Вверх