Loading...
Error

Голодные игры: Сойка-пересмешница. Часть I / The Hunger Games: Mockingjay - Part 1 (Френсис Лоуренс) [2014 г., фантастика, приключения, BDRip] Dub + Original HQ Underverse

Статистика раздачи
Размер:  2,17 GB   |    Зарегистрирован:  1 год 6 месяцев   |    Скачан:  37 раз
Сидов:  2  |  0 KB/s  ]   Личеров:  0  |  0 KB/s  ]

* - сиды/пиры с внешних источников

   
 
Автор Сообщение

HQ Underverse 

14-Май-2015 13:07

Голодные игры: Сойка-пересмешница. Часть I / The Hunger Games: Mockingjay - Part 1


Год выпуска: 2014
Жанр: фантастика, приключения
Страна: США
Режиссер: Френсис Лоуренс
В ролях: Дженнифер Лоуренс, Джош Хатчерсон, Лиам Хемсворт, Вуди Харрельсон, Дональд Сазерленд, Филип Сеймур Хоффман, Джулианна Мур, Уиллоу Шилдс, Сэм Клафлин, Элизабет Бэнкс
Сюжет фильма:
75-ые Голодные игры изменили все. Китнисс нарушила правила, и непоколебимое до той поры деспотичное правление Капитолия пошатнулось. У людей появилась надежда, и ее символ — Сойка-пересмешница. Теперь, чтобы освободить захваченного в плен Пита и защитить своих близких, Китнисс придется сражаться в настоящих битвах и стать еще сильнее, чем на арене игр.

  • Мировая премьера: 10 ноября 2014
  • Российская премьера: 20 ноября 2014, «Вольга»

/
Качество видео: BDRip

Продолжительность: 02:02:41
Формат: avi
Видео: XviD, 720x400, 2074 kbps
Аудио #1: русский, дублированный [лицензия], AC3 5.1, 448 kbps
Аудио #2: английский, оригинал, AC3 5.1, 448 kbps (отдельным файлом: здесь)

Код:

General
Complete name                    : Y:\Голодные Игры Сойка Пересмешница\The.Hunger.Games.Mockingjay.part1.BDRip.XviD.AC3.Rus.D.HQ.Underverse.avi
Format                           : AVI
Format/Info                      : Audio Video Interleave
Format profile                   : OpenDML
File size                        : 2.17 GiB
Duration                         : 2h 2mn
Overall bit rate                 : 2 534 Kbps
Writing application              : VirtualDubMod 1.5.10.3 | www.virtualdub-fr.org || (build 2550/release)
Writing library                  : VirtualDubMod build 2550/release

Video
ID                               : 0
Format                           : MPEG-4 Visual
Format profile                   : Streaming Video@L1
Format settings, BVOP            : Yes
Format settings, QPel            : No
Format settings, GMC             : No warppoints
Format settings, Matrix          : Custom
Codec ID                         : XVID
Codec ID/Hint                    : XviD
Duration                         : 2h 2mn
Bit rate                         : 2 074 Kbps
Width                            : 720 pixels
Height                           : 400 pixels
Display aspect ratio             : 16/9
Frame rate                       : 24.000 fps
Resolution                       : 24 bits
Colorimetry                      : 4:2:0
Scan type                        : Progressive
Bits/(Pixel*Frame)               : 0.300
Stream size                      : 1.78 GiB (82%)
Writing library                  : XviD 66

Audio
ID                               : 1
Format                           : AC-3
Format/Info                      : Audio Coding 3
Codec ID                         : 2000
Duration                         : 2h 2mn
Bit rate mode                    : Constant
Bit rate                         : 448 Kbps
Channel(s)                       : 6 channels
Channel positions                : Front: L C R, Surround: L R, LFE
Sampling rate                    : 48.0 KHz
Stream size                      : 393 MiB (18%)
Alignment                        : Split accross interleaves
Interleave, duration             : 42 ms (1.00 video frame)
Interleave, preload duration     : 500 ms

General
Complete name                    : Y:\Голодные Игры Сойка Пересмешница\The.Hunger.Games.Mockingjay.part1.BDRip.XviD.AC3.Rus.D.HQ.Underverse.ac3
Format                           : AC-3
Format/Info                      : Audio Coding 3
File size                        : 393 MiB
Duration                         : 2h 2mn
Overall bit rate                 : 448 Kbps

Audio
Format                           : AC-3
Format/Info                      : Audio Coding 3
Duration                         : 2h 2mn
Bit rate mode                    : Constant
Bit rate                         : 448 Kbps
Channel(s)                       : 6 channels
Channel positions                : Front: L C R, Surround: L R, LFE
Sampling rate                    : 48.0 KHz
Stream size                      : 393 MiB (100%)

Релиз группы:

picpicpic
Для увеличения картинки щелкните мышкой по превью

Этот торрент недоступен для скачивания без регистрации, однако доступен по публичной magnet-ссылке (источники с публичных трекеров). Перед использованием ссылки прочтите, пожалуйста Пользовательское соглашение, а также как можно дольше оставайтесь на раздаче! Для того, чтобы скачать сам торрент-файл (который видит больше источников), а также для того, чтобы поблагодарить релизера, вам необходимо зарегистрироваться. Если регистрироваться лень - вы можете также попробовать скачать релиз по нашим партнерским ссылкам ниже.

[underverse.su].t54572.torrent
Трекер: Зарегистрирован   [ 14.05.2015 13:07 ]  

Статус: проверено (by Паукан at 15.05.2015 14:05)
Поблагодарили: 6 человек
Тип торрента: публичный - доступные источники с открытых трекеров: 
Размер: 2,17 GB (занимает 1/2 DVDR, для записи нужно 1 болванка DVDR/RW)
 
 
Похожие темы
Форум Тема Автор Торрент Отв. Посл. сооб.
Зарубежное кино [DVDRip, Low-Res HDRip, и т.д.] Голодные игры / The Hunger Games (Гэри Росс) [2012 г., Фантастика, боевик, триллер, драма, HDRip] Zamez WeaSel
1 | 0

2 | 2479

153

05.11.2012 22:42

Зарубежное кино [DVDRip, Low-Res HDRip, и т.д.] Голодные игры: И вспыхнет пламя / The Hunger Games: Catching Fire (Френсис Лоуренс / Francis Lawrence) [2013 г., фантастика, боевик, триллер, приключения, BDRip-AVC] [IMAX] Dub + Original (Eng) + Sub... 90ytr90
3 | 0

0 | 887

28

09.03.2014 18:15

Зарубежное кино [DVDRip, Low-Res HDRip, и т.д.] Голодные игры: И вспыхнет пламя / The Hunger Games: Catching Fire (Френсис Лоуренс / Francis Lawrence) [2013 г., фантастика, боевик, триллер, приключения, HDRip] [IMAX] Dub 90ytr90
8 | 1

0 | 921

66

09.03.2014 19:05

Зарубежное кино [DVDRip, Low-Res HDRip, и т.д.] Голодные игры: И вспыхнет пламя / The Hunger Games: Catching Fire (Френсис Лоуренс / Francis Lawrence) [2013 г., фантастика, боевик, триллер, приключения, BDRip-AVC] [IMAX] Dub + Original (Eng) + Sub... 90ytr90
1 | 1

0 | 661

20

11.12.2014 19:17

Зарубежное кино [DVDRip, Low-Res HDRip, и т.д.] Голодные игры: И вспыхнет пламя / The Hunger Games: Catching Fire (Френсис Лоуренс) [2013 г., фантастика, боевик, триллер, приключения, HDRip] [IMAX] Dub 90ytr90
65 | 4

0 | 1131

91

11.12.2014 19:42

T Зарубежное кино [DVDRip, Low-Res HDRip, и т.д.] Голодные игры: Сойка-пересмешница. Часть II / The Hunger Games: Mockingjay - Part 2 (Френсис Лоуренс / Francis Lawrence) [2015 г., фантастика, приключения, BDRip-AVC] Dub (iTunes) + Original (Eng) +... 90ytr90
64 | 7

0 | 320

5

15.10.2016 19:37

T Зарубежное кино [DVDRip, Low-Res HDRip, и т.д.] Голодные игры: Сойка-пересмешница. Часть II / The Hunger Games: Mockingjay - Part 2 (Френсис Лоуренс / Francis Lawrence) [2015 г., фантастика, приключения, BDRip-AVC] Dub (iTunes) + Sub (Rus) 90ytr90
20 | 0

0 | 313

0

15.10.2016 19:32

T Зарубежное кино [DVDRip, Low-Res HDRip, и т.д.] Голодные игры: Сойка-пересмешница. Часть II / The Hunger Games: Mockingjay - Part 2 (Френсис Лоуренс / Francis Lawrence) [2015 г., фантастика, приключения, HDRip] Dub (iTunes) 90ytr90
376 | 4

0 | 301

3

15.10.2016 19:27

T Зарубежное кино [DVDRip, Low-Res HDRip, и т.д.] Голодные игры: Сойка-пересмешница. Часть II / The Hunger Games: Mockingjay - Part 2 (Френсис Лоуренс / Francis Lawrence) [2015 г., фантастика, приключения, HDRip] Dub (iTunes) 90ytr90
1076 | 13

0 | 287

3

15.10.2016 19:13

T Зарубежное кино [DVDRip, Low-Res HDRip, и т.д.] Голодные игры: Сойка-пересмешница. Часть II / The Hunger Games: Mockingjay - Part 2 (Френсис Лоуренс) [2015 г., фантастика, боевик, приключения, DVDRip] Dub (звук с CAMRip) + Original makkol
54 | 3

0 | 701

28

08.03.2016 13:01

LuKaroline Пол:Жен

23-Сен-2015 21:07

Встаньте на раздачу пожалуйста)))) :help:

Яндекс.Метрика powered by Sphinx


В Н И М А Н И Е
Сайт не распространяет и не хранит электронные версии произведений, а лишь бесплатно и без коммерческой выгоды (не требуя взамен платы,
SMS и т.д.) предоставляет доступ к создаваемому пользователями каталогу ссылок на торрент-файлы, которые содержат только списки хеш-сумм.
Убедительная просьба с жалобами обращаться напрямую к пользователю, разместившему торрент файл.

Вверх