Loading...
Error

Белая ночь (1-4 серии из 4) (Александр Якимчук) [2015 г., военный , детектив, SatRip]

Статистика раздачи
Размер:  2,15 GB   |    Зарегистрирован:  1 год 6 месяцев   |    Скачан:  70 раз
Сидов:  2  |  0 KB/s  ]   Личеров:  0  |  0 KB/s  ]

* - сиды/пиры с внешних источников

   
 
Автор Сообщение

nemos Пол:Муж

09-Май-2015 18:50

Белая ночь


Год выпуска: 2015
Жанр: военный, детектив
Страна: Россия
Режиссер: Александр Якимчук
В ролях: Сергей Юшкевич, Александр Фисенко, Олег Федоров (III), Георгий Неусыпов, Иван Патраман, Виталий Жигалин, Андрей Котов (II), Валерий Малюшин, Юлия Горшенина, Ольга Гагарина, Ирина Умикова, Роман Притула, Екатерина Новикова, Ринат Ибрагимов, Сергей Гарусов, Денис Рейшахрит
Сюжет фильма:
1944 год. Диверсионная группа под руководством капитана Сергея Туманова возвращается из-за линии фронта после выполнения важного задания. Чтобы оторваться от преследования Туманов принимает непростое решение избавиться от двух пленных немецких офицеров – иначе жизнь его людей окажется под угрозой. Позже за это решение Туманова арестовывают сотрудники НКВД, но опытному диверсанту удается сбежать. 1947 год. В послевоенном Ленинграде происходит несколько громких преступлений. Сотрудники отдела по борьбе с бандитизмом вскоре выясняют, что все эти преступления объединяет одна особенность – они слишком тщательно спланированы. Начальник ОББ Юрий Некрылов понимает, что столкнулся с крайне опасным преступником, и обычными методами его не задержать. Потому что этот преступник – бывший советский разведчик Сергей Туманов…
Качество видео: SatRip

Продолжительность: 00:46:21 серия
Формат: AVI
Видео: XviD, 720x400, 1 496 kbps
Аудио: русский, AC3 2.0, 192 kbps

Код:

E:\Фильмы-1\Belaia.Nochj.2015.XviD.SATRip.by.Generalfilm\04.Belaia.Nochj.2015.XviD.SATRip.by.Generalfilm.avi
   General
      Complete name : E:\Фильмы-1\Belaia.Nochj.2015.XviD.SATRip.by.Generalfilm\04.Belaia.Nochj.2015.XviD.SATRip.by.Generalfilm.avi
      Format : AVI
      Format/Info : Audio Video Interleave
      File size : 563 MiB
      Duration : 46mn 21s
      Overall bit rate : 1 698 Kbps
      Writing application : VirtualDubMod 1.5.10.3 | www.virtualdub-fr.org || (build 2550/release)
      Writing library : VirtualDubMod build 2550/release
   Video #0
      ID : 0
      Format : MPEG-4 Visual
      Format profile : Advanced Simple@L5
      Format settings, BVOP : 1
      Format settings, QPel : No
      Format settings, GMC : No warppoints
      Format settings, Matrix : Default (H.263)
      Codec ID : XVID
      Codec ID/Hint : XviD
      Duration : 46mn 21s
      Bit rate : 1 496 Kbps
      Width : 720 pixels
      Height : 400 pixels
      Display aspect ratio : 16:9
      Frame rate : 25.000 fps
      Color space : YUV
      Chroma subsampling : 4:2:0
      Bit depth : 8 bits
      Scan type : Progressive
      Compression mode : Lossy
      Bits/(Pixel*Frame) : 0.208
      Stream size : 496 MiB (88%)
      Writing library : XviD 73
   Audio #1
      ID : 1
      Format : AC-3
      Format/Info : Audio Coding 3
      Mode extension : CM (complete main)
      Format settings, Endianness : Big
      Codec ID : 2000
      Duration : 46mn 20s
      Bit rate mode : Constant
      Bit rate : 192 Kbps
      Channel(s) : 2 channels
      Channel positions : Front: L R
      Sampling rate : 48.0 KHz
      Bit depth : 16 bits
      Compression mode : Lossy
      Stream size : 63.7 MiB (11%)
      Alignment : Split accross interleaves
      Interleave, duration : 40 ms (1.00 video frame)
      Interleave, preload duration : 500 ms
picpicpicpicpicpicpic
Для увеличения картинки щелкните мышкой по превью

Этот торрент недоступен для скачивания без регистрации, однако доступен по публичной magnet-ссылке (источники с публичных трекеров). Перед использованием ссылки прочтите, пожалуйста Пользовательское соглашение, а также как можно дольше оставайтесь на раздаче! Для того, чтобы скачать сам торрент-файл (который видит больше источников), а также для того, чтобы поблагодарить релизера, вам необходимо зарегистрироваться. Если регистрироваться лень - вы можете также попробовать скачать релиз по нашим партнерским ссылкам ниже.

[underverse.su].t54480.torrent
Трекер: Зарегистрирован   [ 09.05.2015 18:50 ]  

Статус: проверено (by nemos at 09.05.2015 18:51)
Поблагодарили: 3 человека
Тип торрента: публичный - доступные источники с открытых трекеров: 
Размер: 2,15 GB (занимает 0,49 DVDR, для записи нужно 1 болванка DVDR/RW)
 
 

Яндекс.Метрика powered by Sphinx


В Н И М А Н И Е
Сайт не распространяет и не хранит электронные версии произведений, а лишь бесплатно и без коммерческой выгоды (не требуя взамен платы,
SMS и т.д.) предоставляет доступ к создаваемому пользователями каталогу ссылок на торрент-файлы, которые содержат только списки хеш-сумм.
Убедительная просьба с жалобами обращаться напрямую к пользователю, разместившему торрент файл.

Вверх