Loading...
Error

Снайпер: Герой сопротивления (1-4 серии из 4) (Арман Геворгян) [2015 г., военный, драма, SatRip]

Статистика раздачи
Размер:  2,2 GB   |    Зарегистрирован:  1 год 6 месяцев   |    Скачан:  64 раза
Сидов:  1  |  0 KB/s  ]   Личеров:  0  |  0 KB/s  ]

* - сиды/пиры с внешних источников

   
 
Автор Сообщение

nemos Пол:Муж

09-Май-2015 18:27

Снайпер: Герой сопротивления


Год выпуска: 2015
Жанр: военный, драма
Страна: Россия
Режиссер: Арман Геворгян
В ролях: Гоша Куценко, Денис Бургазлиев, Анна Снаткина, Владимир Гостюхин, Борис Романов, Дирк Мартенс, Юлия Кадушкевич, Георгий Сивохин, Сергей Широчин
Сюжет фильма:
Лето 1941-го. Наступление вермахта развивается по всем фронтам. Красная Армия на грани катастрофы. В эпицентре событий – судьбы русского Николая Волохова и француза Андре Ренье. Непримиримых врагов война превращает в соратников и друзей. Снайпер Красной армии Волохов и французский офицер Андре Ренье могли сражаться по разные стороны линии фронта. Но оказались в одном строю, когда летом сорок первого красноармейцы из разбитого отряда полковника Зотова захватили у немцев эшелон с польскими военнопленными. Жертвы кампании 1939 года, среди которых оказался и советник польской армии капитан Ренье, были обречены: солдаты умирали от голода и жажды. Андре Ренье – сын белого офицера. Волохов – донской казак. Его семья погибла в годы гражданской смуты от рук белогвардейцев. Они забывают о прошлом, чтобы до последней капли крови защищать затерянную в лесах станцию. Это последний бой обреченных, у которых нет права на отступление. Лучше умереть с оружием в руках, чем оказаться в плену у врага.


Качество видео: SatRip

Продолжительность: 00:39:05 серия
Формат: AVI
Видео: XviD, 720x304, 1 971 kbps
Аудио: русский, MP3 2.0, 128 kbps

Код:

E:\Фильмы-1\Снайпер. Герой сопротивления.2015.SATRip\04.avi
   General
      Complete name : E:\Фильмы-1\Снайпер. Герой сопротивления.2015.SATRip\04.avi
      Format : AVI
      Format/Info : Audio Video Interleave
      File size : 589 MiB
      Duration : 39mn 5s
      Overall bit rate : 2 109 Kbps
      Writing application : VirtualDubMod 1.5.10.3 | www.virtualdub-fr.org || (build 2550/release)
      Writing library : VirtualDubMod build 2550/release
   Video #0
      ID : 0
      Format : MPEG-4 Visual
      Format profile : Advanced Simple@L5
      Format settings, BVOP : 2
      Format settings, QPel : No
      Format settings, GMC : No warppoints
      Format settings, Matrix : Default (H.263)
      Codec ID : XVID
      Codec ID/Hint : XviD
      Duration : 39mn 5s
      Bit rate : 1 971 Kbps
      Width : 720 pixels
      Height : 304 pixels
      Display aspect ratio : 2.35:1
      Frame rate : 25.000 fps
      Color space : YUV
      Chroma subsampling : 4:2:0
      Bit depth : 8 bits
      Scan type : Progressive
      Compression mode : Lossy
      Bits/(Pixel*Frame) : 0.360
      Stream size : 551 MiB (93%)
      Writing library : XviD 1.2.1 (UTC 2008-12-04)
   Audio #1
      ID : 1
      Format : MPEG Audio
      Format version : Version 1
      Format profile : Layer 3
      Mode : Joint stereo
      Mode extension : MS Stereo
      Codec ID : 55
      Codec ID/Hint : MP3
      Duration : 39mn 4s
      Bit rate mode : Constant
      Bit rate : 128 Kbps
      Channel(s) : 2 channels
      Sampling rate : 48.0 KHz
      Compression mode : Lossy
      Stream size : 35.8 MiB (6%)
      Alignment : Aligned on interleaves
      Interleave, duration : 40 ms (1.00 video frame)
      Interleave, preload duration : 504 ms
      Writing library : LAME3.99r
      Encoding settings : -m j -V 4 -q 9 -lowpass 17 -b 128
picpicpicpicpicpicpic
Для увеличения картинки щелкните мышкой по превью

Этот торрент недоступен для скачивания без регистрации, однако доступен по публичной magnet-ссылке (источники с публичных трекеров). Перед использованием ссылки прочтите, пожалуйста Пользовательское соглашение, а также как можно дольше оставайтесь на раздаче! Для того, чтобы скачать сам торрент-файл (который видит больше источников), а также для того, чтобы поблагодарить релизера, вам необходимо зарегистрироваться. Если регистрироваться лень - вы можете также попробовать скачать релиз по нашим партнерским ссылкам ниже.

[underverse.su].t54479.torrent
Трекер: Зарегистрирован   [ 09.05.2015 18:27 ]  

Статус: проверено (by nemos at 09.05.2015 18:28)
Поблагодарили: 5 человек
Тип торрента: публичный - доступные источники с открытых трекеров: 
Размер: 2,2 GB (занимает 0,5 DVDR, для записи нужно 1 болванка DVDR/RW)
 
 
Похожие темы
Форум Тема Автор Торрент Отв. Посл. сооб.
T Наше кино [DVDRip, Low-Res HDRip, и т.д.] Снайпер: Герой сопротивления (Снайпер: Последний выстрел) (Арман Геворгян) [2015 г., военный, драма, приключения, WEB-DLRip] makkol
13 | 0

0 | 769

55

04.07.2015 23:04

Наше кино [DVDRip, Low-Res HDRip, и т.д.] Снайпер: Герой сопротивления / Снайпер: Последний выстрел (Арман Геворгян) [2015 г., военный, боевик, HDTVRip-AVC] 90ytr90
42 | 3

0 | 895

13

20.05.2016 07:40

T Наше кино [HDDVDRip / BDRip / WEB-DL / HDTV 1080/720р] Снайпер: Герой сопротивления (Снайпер: Последний выстрел) (Арман Геворгян) [2015 г., военный, драма, приключения, WEB-DL 720p] makkol
135 | 3

0 | 1006

72

04.07.2015 23:17

val.s.g Пол:Муж

13-Июн-2015 06:56

С таким актерским составом фильм просто не может быть плохим. :Bravo:

Яндекс.Метрика powered by Sphinx


В Н И М А Н И Е
Сайт не распространяет и не хранит электронные версии произведений, а лишь бесплатно и без коммерческой выгоды (не требуя взамен платы,
SMS и т.д.) предоставляет доступ к создаваемому пользователями каталогу ссылок на торрент-файлы, которые содержат только списки хеш-сумм.
Убедительная просьба с жалобами обращаться напрямую к пользователю, разместившему торрент файл.

Вверх