Loading...
Error

Ночной беглец / Run All Night (Хауме Кольет-Серра) [2015 г., боевик, триллер, драма, криминал, детектив, WEB-DLRip] Dub [Звук с TS]

Статистика раздачи
Размер:  745 MB   |    Зарегистрирован:  1 год 7 месяцев   |    Скачан:  15 раз

Полного источника не было: 7 месяцев

Сидов:  0  |  0 KB/s  ]   Личеров:  0  |  0 KB/s  ]

* - сиды/пиры с внешних источников

   
 
Автор Сообщение

Паукан Пол:Муж

08-Май-2015 10:24

Ночной беглец / Run All Night


Название: Ночной беглец
Оригинальное название: Run All Night
Год выхода: 2015
Жанр: боевик, триллер, драма, криминал, детектив
Режиссер-постановщик: Хауме Кольет-Серра
Актеры: Лиам Нисон, Юэль Киннаман, Дженезис Родригез, Бойд Холбрук, Винсент Д’Онофрио, Коммон, Эд Харрис, Холт МакКэллани, Брюс МакГилл, Бо Напп

Описание: Фильм расскажет историю киллера, вступившего в конфликт с бывшим боссом и в итоге вынужденного пуститься в бега, чтобы защитить свою семью от преследования мафией и властями.



Выпущено: США / Energy Entertainment, RatPac-Dune Entertainment, Vertigo Entertainment
Продолжительность: 01:54:18
Озвучивание: Дублированное [Звук с TS]
Примечание: Присутствуют вшитые неотключаемые корейские субтитры.

Формат: AVI (XviD)
Качество: WEB-DLRip
Видео: 773 kb/s, 656x272
Аудио: AC3, 128 kb/s (2 ch)
Размер: 745 MB
Скачать: Сэмпл


General
Complete name : C:UsersuserDesktopNochnoy.beglec.2015.Dt.WEB-DLRip.745MB.avi
Format : AVI
Format/Info : Audio Video Interleave
File size : 745 MiB
Duration : 1h 54mn
Overall bit rate : 911 Kbps
Writing application : VirtualDubMod 1.5.10.3 | www.virtualdub-fr.org || (build 2550/release)
Writing library : VirtualDubMod build 2550/release

Video
ID : 0
Format : MPEG-4 Visual
Format profile : Advanced Simple@L5
Format settings, BVOP : 2
Format settings, QPel : No
Format settings, GMC : No warppoints
Format settings, Matrix : Default (MPEG)
Codec ID : XVID
Codec ID/Hint : XviD
Duration : 1h 54mn
Bit rate : 774 Kbps
Width : 656 pixels
Height : 272 pixels
Display aspect ratio : 2.40:1
Frame rate : 23.976 fps
Color space : YUV
Chroma subsampling : 4:2:0
Bit depth : 8 bits
Scan type : Progressive
Compression mode : Lossy
Bits/(Pixel*Frame) : 0.181
Stream size : 633 MiB (85%)
Writing library : XviD 1.2.1 (UTC 2008-12-04)

Audio
ID : 1
Format : AC-3
Format/Info : Audio Coding 3
Mode extension : CM (complete main)
Format settings, Endianness : Big
Codec ID : 2000
Duration : 1h 54mn
Bit rate mode : Constant
Bit rate : 128 Kbps
Channel(s) : 2 channels
Channel positions : Front: L R
Sampling rate : 48.0 KHz
Bit depth : 16 bits
Compression mode : Lossy
Stream size : 105 MiB (14%)
Alignment : Split accross interleaves
Interleave, duration : 42 ms (1.00 video frame)
Interleave, preload duration : 500 ms



pic pic pic
Для увеличения картинки щелкните мышкой по превью

Этот торрент недоступен для скачивания без регистрации, однако доступен по публичной magnet-ссылке (источники с публичных трекеров). Перед использованием ссылки прочтите, пожалуйста Пользовательское соглашение, а также как можно дольше оставайтесь на раздаче! Для того, чтобы скачать сам торрент-файл (который видит больше источников), а также для того, чтобы поблагодарить релизера, вам необходимо зарегистрироваться. Если регистрироваться лень - вы можете также попробовать скачать релиз по нашим партнерским ссылкам ниже.

[underverse.su].t54441.torrent
Трекер: Зарегистрирован   [ 08.05.2015 10:24 ]  

Статус: T временная (by Паукан at 08.05.2015 10:25)
Поблагодарили: 1 человек
Тип торрента: публичный - доступные источники с открытых трекеров: 
Размер: 745 MB (занимает 0,17 DVDR, для записи нужно 1 болванка DVDR/RW)
 
 
Похожие темы
Форум Тема Автор Торрент Отв. Посл. сооб.
Зарубежное кино [DVDRip, Low-Res HDRip, и т.д.] Ночной беглец / Run All Night (Хауме Кольет-Серра / Jaume Collet-Serra) [2015 г., боевик, криминал, драма, HDRip] Dub 90ytr90
10 | 0

0 | 458

5

25.11.2016 18:19

Зарубежное кино [DVDRip, Low-Res HDRip, и т.д.] Ночной беглец / Run All Night (Хауме Кольет-Серра / Jaume Collet-Serra) [2015 г., боевик, криминал, драма, BDRip] Dub + Original (Eng) + Sub (Rus, Ukr, Eng) 90ytr90
46 | 2

0 | 422

4

25.11.2016 17:37

Зарубежное кино [DVDRip, Low-Res HDRip, и т.д.] Ночной беглец / Run All Night (Хауме Кольет-Серра / Jaume Collet-Serra) [2015 г., боевик, криминал, драма, BDRip-AVC] Dub + Original (Eng) + Sub (Rus, Ukr, Eng) 90ytr90
14 | 0

0 | 397

1

25.11.2016 17:28

T Зарубежное кино [DVDRip, Low-Res HDRip, и т.д.] Ночной беглец / Run All Night (Хауме Кольет-Серра) [2015 г., боевик, триллер, драма, криминал, детектив, WEB-DLRip] Dub [Звук с TS] Паукан
20 | 0

0 | 699

75

08.05.2015 10:27

Зарубежное кино [DVDRip, Low-Res HDRip, и т.д.] Ночной беглец / Run All Night (Жауме Коллет-Серра) [2015 г., боевик, криминальный, драма, BDRip] Dub makkol
70 | 1

0 | 592

51

12.07.2015 11:59

Зарубежное кино [HDDVDRip / BDRip / WEB-DL / HDTV 1080/720р] Ночной беглец / Run All Night (Хауме Кольет-Серра / Jaume Collet-Serra) [2015 г., боевик, криминал, драма, BDRip 1080p] Dub + Original (Eng) + Sub (Rus, Ukr, Eng) 90ytr90
34 | 2

0 | 398

1

25.11.2016 18:15

Зарубежное кино [HDDVDRip / BDRip / WEB-DL / HDTV 1080/720р] Ночной беглец / Run All Night (Хауме Кольет-Серра / Jaume Collet-Serra) [2015 г., боевик, криминал, драма, BDRip 720p] Dub + AVO (Есарев, без цензуры) + AVO (Яроцкий, без цензуры) + AVO (Гаврилов) +... 90ytr90
22 | 0

0 | 369

1

25.11.2016 18:08

Зарубежное кино [HDDVDRip / BDRip / WEB-DL / HDTV 1080/720р] Ночной беглец / Run All Night (Хауме Кольет-Серра / Jaume Collet-Serra) [2015 г., боевик, криминал, драма, BDRip 720p] Dub + Original (Eng) + Sub (Rus, Ukr, Eng) 90ytr90
45 | 1

0 | 396

2

25.11.2016 17:56

T Зарубежное кино [HDDVDRip / BDRip / WEB-DL / HDTV 1080/720р] Ночной беглец / Run All Night (Хауме Кольет-Серра) [2015 г., боевик, триллер, драма, криминал, детектив, WEB-DLRip 720p] Dub [Звук с TS] + Original Паукан
11 | 0

0 | 1107

66

08.05.2015 10:29

Зарубежное кино [HDDVDRip / BDRip / WEB-DL / HDTV 1080/720р] Ночной беглец / Run All Night (Хауме Кольет-Серра) [2015 г., Боевик, криминал, драма BDRip 720p] Dub (чистый звук) + Original romeoexpert
0 | 1

0 | 867

43

03.06.2015 18:17


Яндекс.Метрика powered by Sphinx


В Н И М А Н И Е
Сайт не распространяет и не хранит электронные версии произведений, а лишь бесплатно и без коммерческой выгоды (не требуя взамен платы,
SMS и т.д.) предоставляет доступ к создаваемому пользователями каталогу ссылок на торрент-файлы, которые содержат только списки хеш-сумм.
Убедительная просьба с жалобами обращаться напрямую к пользователю, разместившему торрент файл.

Вверх