Loading...
Error

Ван Хельсинг / Van Helsing (Стивен Соммерс / Stephen Sommers) [2004 г., фэнтези, боевик, триллер, детектив, приключения, BDRip] Dub (Rus) + MVO (Ukr) + Original + Sub (Rus,Eng,Ukr) HQ Underverse

Статистика раздачи
Размер:  2,18 GB   |    Зарегистрирован:  1 год 7 месяцев   |    Скачан:  19 раз
Сидов:  1  |  0 KB/s  ]   Личеров:  0  |  0 KB/s  ]

* - сиды/пиры с внешних источников

   
 
Автор Сообщение

HQ Underverse 

07-Май-2015 09:47

Ван Хельсинг / Van Helsing


Год выпуска: 2004
Жанр: фэнтези, боевик, триллер, детектив, приключения
Страна: США , Чехия
Режиссер: Стивен Соммерс / Stephen Sommers
В ролях: Хью Джекман, Кейт Бекинсейл, Ричард Роксбург, Дэвид Уэнэм, Шулер Хенсли, Елена Анайя, Уилл Кемп, Кевин Дж. О’Коннор, Алан Армстронг, Сильвия Коллока
Сюжет фильма:
Глубоко в Карпатах лежит таинственная страна Трансильвания — мир, в котором зло встречается на каждом шагу, мир, в котором опасность оживает с заходом солнца, и где монстры, живущие в глубине человеческих кошмаров, обретают форму. В этот мир попадает легендарный охотник на чудовищ Ван Хельсинг, рождённый на страницах романа «Дракула» Брэма Стокера.

В своей непрерывной битве против сил зла и за освобождение мира от порождений ада, Ван Хельсинг, по заданию секретного общества, отправляется в Трансильванию, чтобы скрестить оружие со смертельно опасным, наделённым неведомой силой графом Дракулой. На помощь ему внезапно приходит бесстрашная Анна Валери, поставившая целью избавить свою семью от векового проклятья, наложенного убитым вампиром.

  • Мировая премьера: 3 мая 2004
  • Российская премьера: 7 мая 2004

/
Качество видео: BDRip [Van Helsing 2004 Blu-ray 1080p AVC DTS-HD MA 5.1]

Продолжительность: 02:11:31
Формат: avi
Видео: XviD, 720x384, 1907 kbps
Аудио #1: русский, дублированный [R5], AC3 5.1, 448 kbps
Аудио #2: английский, оригинал, AC3 5.1, 448 kbps (отдельным файлом)
Аудио #3: украинский, многоголосый закадровый [профессиональный, ICTV], AC3 2.0, 192 kbps (отдельным файлом)
Субтитры: внешние, SRT, русский, английский, английский SDH, украинский

Семпл: http://multi-up.com/1047429

Релиз группы:

Код:

General
Complete name                    : D:\Video\Movies\Releases\Van.Helsing.2004.BDRip.XviD.AC3.Rus.D.HQ.Underverse.avi
Format                           : AVI
Format/Info                      : Audio Video Interleave
Format profile                   : OpenDML
File size                        : 2.18 GiB
Duration                         : 2h 11mn
Overall bit rate                 : 2 368 Kbps
Writing application              : VirtualDubMod 1.5.10.3 | www.virtualdub-fr.org || (build 2550/release)
Writing library                  : VirtualDubMod build 2550/release

Video
ID                               : 0
Format                           : MPEG-4 Visual
Format profile                   : Streaming Video@L1
Format settings, BVOP            : Yes
Format settings, QPel            : No
Format settings, GMC             : No warppoints
Format settings, Matrix          : Custom
Codec ID                         : XVID
Codec ID/Hint                    : XviD
Duration                         : 2h 11mn
Bit rate                         : 1 908 Kbps
Width                            : 720 pixels
Height                           : 384 pixels
Display aspect ratio             : 1.875
Frame rate                       : 23.976 fps
Resolution                       : 24 bits
Colorimetry                      : 4:2:0
Scan type                        : Progressive
Bits/(Pixel*Frame)               : 0.288
Stream size                      : 1.75 GiB (81%)
Writing library                  : XviD 66

Audio
ID                               : 1
Format                           : AC-3
Format/Info                      : Audio Coding 3
Codec ID                         : 2000
Duration                         : 2h 11mn
Bit rate mode                    : Constant
Bit rate                         : 448 Kbps
Channel(s)                       : 6 channels
Channel positions                : Front: L C R, Surround: L R, LFE
Sampling rate                    : 48.0 KHz
Stream size                      : 421 MiB (19%)
Alignment                        : Split accross interleaves
Interleave, duration             : 42 ms (1.00 video frame)
Interleave, preload duration     : 500 ms
Title                            : Russian Dub (R5)

General
Complete name                    : D:\Video\Movies\Releases\Van.Helsing.2004.BDRip.XviD.AC3.Rus.D.HQ.Underverse.Eng.ac3
Format                           : AC-3
Format/Info                      : Audio Coding 3
File size                        : 421 MiB
Duration                         : 2h 11mn
Overall bit rate                 : 448 Kbps

Audio
Format                           : AC-3
Format/Info                      : Audio Coding 3
Duration                         : 2h 11mn
Bit rate mode                    : Constant
Bit rate                         : 448 Kbps
Channel(s)                       : 6 channels
Channel positions                : Front: L C R, Surround: L R, LFE
Sampling rate                    : 48.0 KHz
Stream size                      : 421 MiB (100%)

General
Complete name                    : D:\Video\Movies\Releases\Van.Helsing.2004.BDRip.XviD.AC3.Rus.D.HQ.Underverse.Ukr.MVO.ac3
Format                           : AC-3
Format/Info                      : Audio Coding 3
File size                        : 181 MiB
Duration                         : 2h 11mn
Overall bit rate                 : 192 Kbps

Audio
Format                           : AC-3
Format/Info                      : Audio Coding 3
Duration                         : 2h 11mn
Bit rate mode                    : Constant
Bit rate                         : 192 Kbps
Channel(s)                       : 2 channels
Channel positions                : L R
Sampling rate                    : 48.0 KHz
Stream size                      : 181 MiB (100%)

picpicpicpic
Для увеличения картинки щелкните мышкой по превью

Этот торрент недоступен для скачивания без регистрации, однако доступен по публичной magnet-ссылке (источники с публичных трекеров). Перед использованием ссылки прочтите, пожалуйста Пользовательское соглашение, а также как можно дольше оставайтесь на раздаче! Для того, чтобы скачать сам торрент-файл (который видит больше источников), а также для того, чтобы поблагодарить релизера, вам необходимо зарегистрироваться. Если регистрироваться лень - вы можете также попробовать скачать релиз по нашим партнерским ссылкам ниже.

[underverse.su].t54407.torrent
Трекер: Зарегистрирован   [ 07.05.2015 09:57 ]  

Статус: проверено (by Паукан at 07.05.2015 13:55)
Поблагодарили: 1 человек
Тип торрента: публичный - доступные источники с открытых трекеров: 
Размер: 2,18 GB (занимает 1/2 DVDR, для записи нужно 1 болванка DVDR/RW)
 
 
Похожие темы
Форум Тема Автор Торрент Отв. Посл. сооб.
# Зарубежное кино [DVD / HDDVD / BD / Remux] Ван Хельсинг / Van Helsing (Стивен Саммерс / Stephen Sommers) [2004 г., ужасы, боевик, триллер, фэнтези, приключения, Blu-Ray Disc 1080p (Custom)] uzi2009
5 | 1

0 | 513

3

13.03.2014 21:16

Зарубежное кино [HDDVDRip / BDRip / WEB-DL / HDTV 1080/720р] Ван Хельсинг / Van Helsing (Стивен Соммерс / Stephen Sommers) [2004 г., фэнтези, боевик, триллер, драма, детектив, приключения, BDRip 1080p] Dub + Original (Eng) + Sub (Rus, Eng) 90ytr90
10 | 1

0 | 295

1

05.09.2016 20:23

RPG Ван Хельсинг. Новая история / The Incredible Adventures of Van Helsing [2013 г., RPG / Action ] RUS [DL|Steam-Rip] от RG Origins Печаль'ka
0 | 0

5 | 1623

44

17.11.2013 09:48

Архив Ван Хельсинг / Van Helsing (Стивен Соммерс) [2004 г., боевик, приключения, фэнтези, триллер, ужасы, BDRip] GUree
0 | 0

2 | 1125

0

05.11.2011 14:44


Яндекс.Метрика powered by Sphinx


В Н И М А Н И Е
Сайт не распространяет и не хранит электронные версии произведений, а лишь бесплатно и без коммерческой выгоды (не требуя взамен платы,
SMS и т.д.) предоставляет доступ к создаваемому пользователями каталогу ссылок на торрент-файлы, которые содержат только списки хеш-сумм.
Убедительная просьба с жалобами обращаться напрямую к пользователю, разместившему торрент файл.

Вверх