Loading...
Error

Дикая / Wild (Жан-Марк Валле) [2014 г., Драма, Биография, HDRip] Dub (RUS, Лицензия)

Статистика раздачи
Размер:  1,37 GB   |    Зарегистрирован:  1 год 6 месяцев   |    Скачан:  98 раз

Полного источника не было: 14 дней

Сидов:  0  |  0 KB/s  ]   Личеров:  0  |  0 KB/s  ]

* - сиды/пиры с внешних источников

   
 
Автор Сообщение

Ведьмочка Пол:Жен

07-Май-2015 02:31

Дикая / Wild


Страна: США
Год выпуска: 2014
Жанр: Драма, Биография
Продолжительность: 01:55:36
Режиссёр: Жан-Марк Валле
В ролях: Риз Уизерспун, Лора Дерн, Томас Садоски, Кин МакРей, Михил Хаушман, У. Эрл Браун, Габи Хоффманн, Кевин О. Ранкин, Брайан Ван Холт, Клифф Де Янг
Сюжет фильма:
В центре сюжета Шерил Стрэйд, раздавленная неудавшимся браком и смертью матери и потерявшая всякую надежду на счастье женщина, отправляется в пешее странствие по территории Pacific Crest Trail — маршруту по наиболее высоким участкам хребта Сьерра-Невада и Каскадных гор. Испытания, выпавшие в этом опасном одиночном путешествии на долю героини, неминуемо исцеляют ее от душевных страданий, но процесс этот будет отнюдь не безболезненным.

Озвучивание:
  • Дублированный, Русский [Лицензия]

Качество видео: HDRip
Формат: AVI

Видео: XviD, 720x304 (2.35:1), 23.976, ~1236 Кбит/сек
Аудио: AC-3, 448 Кбит/сек, 6 Каналов, 48.0 КГц



General
Complete name : \D1chk0.2014.D.HDRip.1400Mb.avi
Format : AVI
Format/Info : Audio Video Interleave
File size : 1.37 GiB
Duration : 1h 55mn
Overall bit rate : 1 693 Kbps
Writing application : VirtualDubMod 1.5.10.2 (build 2540/release)
Writing library : VirtualDubMod build 2540/release

Video
ID : 0
Format : MPEG-4 Visual
Format profile : Advanced Simple@L5
Format settings, BVOP : 2
Format settings, QPel : No
Format settings, GMC : No warppoints
Format settings, Matrix : Default (MPEG)
Codec ID : XVID
Codec ID/Hint : XviD
Duration : 1h 55mn
Bit rate : 1 236 Kbps
Width : 720 pixels
Height : 304 pixels
Display aspect ratio : 2.35:1
Frame rate : 23.976 fps
Color space : YUV
Chroma subsampling : 4:2:0
Bit depth : 8 bits
Scan type : Progressive
Compression mode : Lossy
Bits/(Pixel*Frame) : 0.235
Stream size : 1 022 MiB (73%)
Writing library : XviD 1.2.1 (UTC 2008-12-04)

Audio
ID : 1
Format : AC-3
Format/Info : Audio Coding 3
Mode extension : CM (complete main)
Format settings, Endianness : Big
Codec ID : 2000
Duration : 1h 55mn
Bit rate mode : Constant
Bit rate : 448 Kbps
Channel(s) : 6 channels
Channel positions : Front: L C R, Side: L R, LFE
Sampling rate : 48.0 KHz
Bit depth : 16 bits
Compression mode : Lossy
Stream size : 370 MiB (26%)
Alignment : Split accross interleaves
Interleave, duration : 42 ms (1.00 video frame)
Interleave, preload duratio : 500 ms


picpicpicpicpic
Для увеличения картинки щелкните мышкой по превью



Этот торрент недоступен для скачивания без регистрации, однако доступен по публичной magnet-ссылке (источники с публичных трекеров). Перед использованием ссылки прочтите, пожалуйста Пользовательское соглашение, а также как можно дольше оставайтесь на раздаче! Для того, чтобы скачать сам торрент-файл (который видит больше источников), а также для того, чтобы поблагодарить релизера, вам необходимо зарегистрироваться. Если регистрироваться лень - вы можете также попробовать скачать релиз по нашим партнерским ссылкам ниже.

[underverse.su].t54391.torrent
Трекер: Зарегистрирован   [ 07.05.2015 02:31 ]  

Статус: проверено (by Ведьмочка at 07.05.2015 02:33)
Поблагодарили: 4 человека
Тип торрента: публичный - доступные источники с открытых трекеров: 
Размер: 1,37 GB (занимает 0,31 DVDR, для записи нужно 1 болванка DVDR/RW)
 
 
Похожие темы
Форум Тема Автор Торрент Отв. Посл. сооб.
Зарубежное кино [DVDRip, Low-Res HDRip, и т.д.] Дикая / Wild (Жан-Марк Валле) [2014 г., драма, биография, HDRip] DVO [Savetig Studios] Паукан
7 | 0

0 | 700

39

24.03.2015 14:58

Зарубежное кино [DVDRip, Low-Res HDRip, и т.д.] Дикая / Wild (Жан-Марк Валле) [2014 г., Драма, Биография, HDRip] Dub (RUS, Лицензия) + Original (ENG) + Subs (RUS, ENG) Ведьмочка
2 | 1

0 | 473

14

07.05.2015 02:26

Зарубежное кино [HDDVDRip / BDRip / WEB-DL / HDTV 1080/720р] Дикая / Wild (Жан-Марк Валле) [2014 г., Драма, Биография, BDRip 1080p] Dub (RUS, Лицензия) + Original (ENG) + Comments (ENG) + Subs (ROM, RUS, ENG) Ведьмочка
3 | 0

0 | 589

19

07.05.2015 01:33

Зарубежное кино [HDDVDRip / BDRip / WEB-DL / HDTV 1080/720р] Дикая / Wild (Жан-Марк Валле) [2014 г., Драма, Биография, BDRip 720p] Dub (RUS, Лицензия) + Original (ENG) + Subs (RUS, ENG) Ведьмочка
6 | 0

0 | 464

24

07.05.2015 01:55


Яндекс.Метрика powered by Sphinx


В Н И М А Н И Е
Сайт не распространяет и не хранит электронные версии произведений, а лишь бесплатно и без коммерческой выгоды (не требуя взамен платы,
SMS и т.д.) предоставляет доступ к создаваемому пользователями каталогу ссылок на торрент-файлы, которые содержат только списки хеш-сумм.
Убедительная просьба с жалобами обращаться напрямую к пользователю, разместившему торрент файл.

Вверх