Loading...
Error

Цимбелин / Cymbeline (Майкл Алмерейда) [2014 г., Драма, HDRip] DVO (RUS, Студия Пиратского Дубляжа)

Статистика раздачи
Размер:  1,46 GB   |    Зарегистрирован:  1 год 7 месяцев   |    Скачан:  18 раз

Полного источника не было: 1 год 3 месяца

Сидов:  0  |  0 KB/s  ]   Личеров:  0  |  0 KB/s  ]

* - сиды/пиры с внешних источников

   
 
Автор Сообщение

Ведьмочка Пол:Жен

07-Май-2015 01:03

Цимбелин / Cymbeline
«Короли, королевы, байкеры, война»


Страна: США
Год выпуска: 2014
Жанр: Драма
Продолжительность: 01:38:30
Режиссёр: Майкл Алмерейда
В ролях: Итан Хоук, Эд Харрис, Милла Йовович, Дакота Джонсон, Антон Ельчин, Пенн Бэджли, Джон Легуизамо, Питер Герети, Кевин Корригэн, Вонди Куртис-Холл
Сюжет фильма:
Современный пересказ одноименной трагедии Уильяма Шекспира. Действие перенесено в наши дни. Цимбелин, лидер байкеров-наркоторговцев, объявляет войну местным продажным полицейским. Его дочери, Имогене и ее возлюбленному Постуму приходится самим сражаться за свою любовь.

Озвучивание:
  • Любительский, Двухголосный, Русский [Студия Пиратского Дубляжа]

Качество видео: HDRip
Формат: AVI

Видео: XviD, 720x384 (1.85.1), 23.976, ~1729 Кбит/сек
Аудио: AC-3, 384 Кбит/сек, 2 Канала, 48.0 КГц



General
Complete name : \Cymbeline.2014.P.HDRip.1.46GB.avi
Format : AVI
Format/Info : Audio Video Interleave
File size : 1.46 GiB
Duration : 1h 38mn
Overall bit rate : 2 122 Kbps
Writing application : VirtualDubMod 1.5.10.3 | www.virtualdub-fr.org || (build 2550/release)
Writing library : VirtualDubMod build 2550/release

Video
ID : 0
Format : MPEG-4 Visual
Format profile : Advanced Simple@L5
Format settings, BVOP : 2
Format settings, QPel : No
Format settings, GMC : No warppoints
Format settings, Matrix : Default (MPEG)
Codec ID : XVID
Codec ID/Hint : XviD
Duration : 1h 38mn
Bit rate : 1 729 Kbps
Width : 720 pixels
Height : 384 pixels
Display aspect ratio : 1.85:1
Frame rate : 23.976 fps
Color space : YUV
Chroma subsampling : 4:2:0
Bit depth : 8 bits
Scan type : Progressive
Compression mode : Lossy
Bits/(Pixel*Frame) : 0.261
Stream size : 1.19 GiB (81%)
Writing library : XviD 1.2.1 (UTC 2008-12-04)

Audio
ID : 1
Format : AC-3
Format/Info : Audio Coding 3
Mode extension : CM (complete main)
Format settings, Endianness : Big
Codec ID : 2000
Duration : 1h 38mn
Bit rate mode : Constant
Bit rate : 384 Kbps
Channel(s) : 2 channels
Channel positions : Front: L R
Sampling rate : 48.0 KHz
Bit depth : 16 bits
Compression mode : Lossy
Stream size : 271 MiB (18%)
Alignment : Split accross interleaves
Interleave, duration : 42 ms (1.00 video frame)
Interleave, preload duratio : 500 ms


picpicpicpicpic
Для увеличения картинки щелкните мышкой по превью



Этот торрент недоступен для скачивания без регистрации, однако доступен по публичной magnet-ссылке (источники с публичных трекеров). Перед использованием ссылки прочтите, пожалуйста Пользовательское соглашение, а также как можно дольше оставайтесь на раздаче! Для того, чтобы скачать сам торрент-файл (который видит больше источников), а также для того, чтобы поблагодарить релизера, вам необходимо зарегистрироваться. Если регистрироваться лень - вы можете также попробовать скачать релиз по нашим партнерским ссылкам ниже.

[underverse.su].t54387.torrent
Трекер: Зарегистрирован   [ 07.05.2015 01:03 ]  

Статус: проверено (by Ведьмочка at 07.05.2015 01:10)
Поблагодарили: 2 человека
Тип торрента: публичный - доступные источники с открытых трекеров: 
Размер: 1,46 GB (занимает 0,33 DVDR, для записи нужно 1 болванка DVDR/RW)
 
 
Похожие темы
Форум Тема Автор Торрент Отв. Посл. сооб.
Зарубежное кино [DVDRip, Low-Res HDRip, и т.д.] Цимбелин / Cymbeline (Майкл Алмерейда) [2014 г., Драма, WEB-DLRip] MVO Су-34
0 | 0

0 | 610

13

22.03.2015 20:21

T Зарубежное кино [DVDRip, Low-Res HDRip, и т.д.] Цимбелин / Cymbeline (Майкл Алмерейда) [2014 г., драма, HDRip] Dub [Чистый звук] Паукан
0 | 0

0 | 350

9

20.05.2015 14:17

Зарубежное кино [DVDRip, Low-Res HDRip, и т.д.] Цимбелин / Cymbeline (Майкл Алмерейда) [2014 г., драма, HDRip] Dub makkol
4 | 0

0 | 285

7

29.06.2015 23:24

Зарубежное кино [HDDVDRip / BDRip / WEB-DL / HDTV 1080/720р] Цимбелин / Cymbeline (Майкл Алмерейда) [2014 г., Драма, BDRip 720p] DVO (RUS, Студия Пиратского Дубляжа) + Original (ENG) Ведьмочка
13 | 0

0 | 399

10

07.05.2015 00:53


Яндекс.Метрика powered by Sphinx


В Н И М А Н И Е
Сайт не распространяет и не хранит электронные версии произведений, а лишь бесплатно и без коммерческой выгоды (не требуя взамен платы,
SMS и т.д.) предоставляет доступ к создаваемому пользователями каталогу ссылок на торрент-файлы, которые содержат только списки хеш-сумм.
Убедительная просьба с жалобами обращаться напрямую к пользователю, разместившему торрент файл.

Вверх