Loading...
Error

Папаши / The ComDads / Les comperes (Франсис Вебер / Francis Veber) [1983 г., комедия, криминальный, BDRip] MVO (RUS) + Original (FRA) + Subs (RUS, ENG)

Статистика раздачи
Размер:  1,45 GB   |    Зарегистрирован:  1 год 6 месяцев   |    Скачан:  6 раз

Полного источника не было: 1 день 12 часов

Сидов:  0  |  0 KB/s  ]   Личеров:  0  |  0 KB/s  ]

* - сиды/пиры с внешних источников

   
 
Автор Сообщение

Fert Пол:Муж

04-Май-2015 20:43

Папаши / The ComDads / Les comperes


Год выпуска: 1983
Жанр: комедия, криминальный
Страна: Франция
Режиссер: Франсис Вебер / Francis Veber
В ролях: Пьер Ришар, Жерар Депардье, Стефан Бьерри, Анни Дюпере, Мишель Омон, Жан-Жак Шеффер, Филипп Хорсан, Ролан Бланш, Жак Франц, Морис Барье
Сюжет фильма:
У Кристины Мартен была очень бурная молодость. Когда из дома сбегает её семнадцатилетний сын Тристан, на его поиски бросаются сразу два предполагаемых отца. Вернуть подростка в отчий дом пытаются учитель Франсуа Пиньон и журналист Жан Люка.

  • Мировая премьера: 23 ноября 1983

Качество видео: BDRip

Продолжительность: 01:30:00
Формат: AVI
Видео: XviD, 720x432, 1885 kbps
Аудио #1 : Многогоголосный, Закадровый, Русский, 48 kHz, AC3 Dolby Digital, 2/0 (L,R), ~192 kbps
Аудио #2 : Оригинал, Французский, 48 kHz, AC3 Dolby Digital, 2/0 (L,R), ~192 kbps
Субтитры #1: SRT, Английские, (Отдельно)
Субтитры #2: SRT, Русские, (Отдельно)


General
Complete name : \Papashi.1983.DUAL.BDRip.XviD.AC3.-HQCLUB\Papashi.1983.DUAL.BDRip.XviD.AC3.-HQCLUB.avi
Format : AVI
Format/Info : Audio Video Interleave
File size : 1.45 GiB
Duration : 1h 30mn
Overall bit rate : 2 282 Kbps
Movie name : Папаши / The ComDads / Les comperes (1983) BDRip
Director : sociolog_melvas
Genre : комедия, криминал
Writing application : VirtualDubMod 1.5.10.2 (build 2540/release)
Comment : 28.11.2014

Video
ID : 0
Format : MPEG-4 Visual
Format profile : Advanced Simple@L5
Format settings, BVOP : 1
Format settings, QPel : No
Format settings, GMC : No warppoints
Format settings, Matrix : Custom
Codec ID : XVID
Codec ID/Hint : XviD
Duration : 1h 30mn
Bit rate : 1 885 Kbps
Width : 720 pixels
Height : 432 pixels
Display aspect ratio : 1.667
Frame rate : 24.000 fps
Color space : YUV
Chroma subsampling : 4:2:0
Bit depth : 8 bits
Scan type : Progressive
Compression mode : Lossy
Bits/(Pixel*Frame) : 0.252
Stream size : 1.20 GiB (83%)
Writing library : XviD 65

Audio #1
ID : 1
Format : AC-3
Format/Info : Audio Coding 3
Mode extension : CM (complete main)
Format settings, Endianness : Big
Codec ID : 2000
Duration : 1h 30mn
Bit rate mode : Constant
Bit rate : 192 Kbps
Channel(s) : 2 channels
Channel positions : Front: L R
Sampling rate : 48.0 KHz
Bit depth : 16 bits
Compression mode : Lossy
Stream size : 125 MiB (8%)
Alignment : Split accross interleaves
Interleave, duration : 42 ms (1.00 video frame)
Interleave, preload duratio : 500 ms

Audio #2
ID : 2
Format : AC-3
Format/Info : Audio Coding 3
Mode extension : CM (complete main)
Format settings, Endianness : Big
Codec ID : 2000
Duration : 1h 30mn
Bit rate mode : Constant
Bit rate : 192 Kbps
Channel(s) : 2 channels
Channel positions : Front: L R
Sampling rate : 48.0 KHz
Bit depth : 16 bits
Compression mode : Lossy
Stream size : 125 MiB (8%)
Alignment : Split accross interleaves
Interleave, duration : 42 ms (1.00 video frame)
Interleave, preload duratio : 500 ms
picpicpicpicpic
Для увеличения картинки щелкните мышкой по превью

Этот торрент недоступен для скачивания без регистрации, однако доступен по публичной magnet-ссылке (источники с публичных трекеров). Перед использованием ссылки прочтите, пожалуйста Пользовательское соглашение, а также как можно дольше оставайтесь на раздаче! Для того, чтобы скачать сам торрент-файл (который видит больше источников), а также для того, чтобы поблагодарить релизера, вам необходимо зарегистрироваться. Если регистрироваться лень - вы можете также попробовать скачать релиз по нашим партнерским ссылкам ниже.

[underverse.su].t54416.torrent
Трекер: Зарегистрирован   [ 07.05.2015 18:38 ]  

Статус: проверено (by Ведьмочка at 08.05.2015 04:13)
Поблагодарили: 1 человек
Тип торрента: публичный - доступные источники с открытых трекеров: 
Размер: 1,45 GB (занимает 1/3 DVDR, для записи нужно 1 болванка DVDR/RW)
 
 
Похожие темы
Форум Тема Автор Торрент Отв. Посл. сооб.
Зарубежное кино [DVDRip, Low-Res HDRip, и т.д.] Папаши / The Guvnors (Гейб Тернер) [2014 г., триллер, HDRip] VO [Хихикающий доктор] + Original Паукан
1 | 0

0 | 552

14

24.03.2015 14:27



Последний раз редактировалось: Fert (07.05.2015 20:49), всего редактировалось 3 раз(а)

Fert Пол:Муж

04-Май-2015 20:45

ближайший день - или два исправлю

Яндекс.Метрика powered by Sphinx


В Н И М А Н И Е
Сайт не распространяет и не хранит электронные версии произведений, а лишь бесплатно и без коммерческой выгоды (не требуя взамен платы,
SMS и т.д.) предоставляет доступ к создаваемому пользователями каталогу ссылок на торрент-файлы, которые содержат только списки хеш-сумм.
Убедительная просьба с жалобами обращаться напрямую к пользователю, разместившему торрент файл.

Вверх