Loading...
Error

Офицерские жены (1-12 серии из 12) (Дмитрий Петрунь) [2015 г., драма, семейный, военный, WEB-DLRip]

Статистика раздачи
Размер:  7,19 GB   |    Зарегистрирован:  1 год 6 месяцев   |    Скачан:  21 раз

Полного источника не было: 1 месяц 18 дней

Сидов:  0  |  0 KB/s  ]   Личеров:  0  |  0 KB/s  ]

* - сиды/пиры с внешних источников

   
 
Автор Сообщение

nemos Пол:Муж

04-Май-2015 19:12

Офицерские жены (2015) WEB-DLRip

Производство: Россия, Украина / "Star Media"
Жанр: драма, семейный, военный

Режиссер: Дмитрий Петрунь
Актеры: Константин Милованов, Мария Порошина, Ольга Арнтгольц, Павел Делонг, Виктор Хориняк, Юрий Борисов (II), Анастасия Лукьянова, Ольга Макеева, Анна Арефьева, Игорь Писный, Данила Краснощек, Валентин Касьян, Виталий Салий, Инга Нагорная, Роман Курцын, Ольга Олексий, Юлия Паничкина, Ольга Гришина

Описание:
Семейная сага рассказывает о судьбе нескольких поколений женщин семьи Антоновых-Тереховых, а также их ближайшего окружения. В каждом поколении есть героиня по имени Надежда. Временной охват — с 40-х годов 20 века по 2002-й год. В фильме освещены важные для страны и для военных события — репрессии, вторая мировая, Афганистан, участие армии в ликвидации последствий Чернобыльской аварии, межвременье начала 90-х, развал СССР, падение престижа военной службы…
… И все-таки ещё одна Надежда (четвертая, дочка Лены Тереховой) захочет связать свою судьбу с военным, и тоже будет офицерской женой…

Дата премьеры: 26 апреля 2015

Качество видео: WEB-DLRip
Продолжительность: ~00:45:00 серия
Формат: AVI
Видеокодек: XviD
Битрейт видео: ~1791 kbps
Размер кадра: 720x400
Аудиокодек: МР3, 2 ch
Битрейт аудио: 128 kbps

Код:

Общее
Полное имя                               : D:\Офицерские жены\Oficerskie.zheni.01..avi
Формат                                   : AVI
Формат/Информация                        : Audio Video Interleave
Размер файла                             : 627 Мбайт
Продолжительность                        : 45 м.
Общий поток                              : 1929 Кбит/сек
Программа кодирования                    : VirtualDubMod 1.5.10.3 | [url=http://www.virtualdub-fr.org]www.virtualdub-fr.org[/url] || (build 2550/release)
Библиотека кодирования                   : VirtualDubMod build 2550/release

Видео
Идентификатор                            : 0
Формат                                   : MPEG-4 Visual
Профиль формата                          : Advanced Simple@L5
Параметр BVOP формата                    : 3
Параметр QPel формата                    : Нет
Параметр GMC формата                     : Без точки перехода
Параметр матрицы формата                 : Default (H.263)
Идентификатор кодека                     : XVID
Идентификатор кодека/Подсказка           : XviD
Продолжительность                        : 45 м.
Битрейт                                  : 1791 Кбит/сек
Ширина                                   : 720 пикселей
Высота                                   : 400 пикселей
Соотношение сторон                       : 16:9
Частота кадров                           : 25,000 кадров/сек
Цветовое пространство                    : YUV
Субдискретизация насыщенности            : 4:2:0
Битовая глубина                          : 8 бит
Тип развёртки                            : Прогрессивная
Метод сжатия                             : С потерями
Бит/(Пиксели*Кадры)                      : 0.249
Размер потока                            : 583 Мбайт (93%)
Библиотека кодирования                   : XviD 1.2.1 (UTC 2008-12-04)

Аудио
Идентификатор                            : 1
Формат                                   : MPEG Audio
Версия формата                           : Version 1
Профиль формата                          : Layer 3
Идентификатор кодека                     : 55
Идентификатор кодека/Подсказка           : MP3
Продолжительность                        : 45 м.
Вид битрейта                             : Постоянный
Битрейт                                  : 128 Кбит/сек
Каналы                                   : 2 канала
Частота                                  : 44,1 КГц
Метод сжатия                             : С потерями
Размер потока                            : 41,6 Мбайт (7%)
Выравнивание                             : Разделение по промежуткам
Продолжительность промежутка             : 40  мс. (1,00 видеокадр)
Время предзагрузки промежутка            : 500  мс.
Библиотека кодирования                   : LAME3.99r
Настройки программы                      : -m s -V 4 -q 2 -lowpass 17 -b 128
Внимание! Раздача ведётся путём добавления новых серий; при каждом добавлении создаётся новый торрент.
Чтобы начать докачку новой серии, пользователям необходимо сделать следующее:
1. Остановить скачивание;
2. Удалить старый торрент у себя из клиента (старые серии удалять не надо);
3. Скачать новый торрент и запустить его у себя в клиенте вместо старого, при этом указать клиенту путь в старую папку куда и должно происходить скачивание новых серий. Ваш клиент при этом должен произвести хеширование (проверку) старой папки и будет докачивать только те серии, которых у вас ещё нет. Старые серии при этом не удаляются, а продолжают раздаваться! Eсли вы уже удалили старые серии, то предотвратить повторную закачку старых серий можно, отжав галочку в соответствующих местах при запуске нового торрента.
Скриншоты:
picpicpicpic

Этот торрент недоступен для скачивания без регистрации, однако доступен по публичной magnet-ссылке (источники с публичных трекеров). Перед использованием ссылки прочтите, пожалуйста Пользовательское соглашение, а также как можно дольше оставайтесь на раздаче! Для того, чтобы скачать сам торрент-файл (который видит больше источников), а также для того, чтобы поблагодарить релизера, вам необходимо зарегистрироваться. Если регистрироваться лень - вы можете также попробовать скачать релиз по нашим партнерским ссылкам ниже.

[underverse.su].t54500.torrent
Трекер: Зарегистрирован   [ 10.05.2015 16:11 ]  

Статус: проверено (by nemos at 10.05.2015 16:11)
Поблагодарили: 1 человек
Тип торрента: публичный - доступные источники с открытых трекеров: 
Размер: 7,19 GB (занимает 1,64 DVDR, для записи нужно 2 болванки DVDR/RW)
 
 
Похожие темы
Форум Тема Автор Торрент Отв. Посл. сооб.
xUSSR сериалы [BD / Remux / BDRip / WEB-DL / HDTV 1080/720р] Офицерские жены (1-12 серии из 12) (Дмитрий Петрунь) [2015 г., драма, семейный, военный, WEB-DL 1080p] nemos
0 | 0

1 | 1259

5

30.04.2015 16:10



Последний раз редактировалось: nemos (10.05.2015 16:11), всего редактировалось 3 раз(а)

nemos Пол:Муж

05-Май-2015 22:17

Раздача обновлена! Добавлена серия:12

Яндекс.Метрика powered by Sphinx


В Н И М А Н И Е
Сайт не распространяет и не хранит электронные версии произведений, а лишь бесплатно и без коммерческой выгоды (не требуя взамен платы,
SMS и т.д.) предоставляет доступ к создаваемому пользователями каталогу ссылок на торрент-файлы, которые содержат только списки хеш-сумм.
Убедительная просьба с жалобами обращаться напрямую к пользователю, разместившему торрент файл.

Вверх