Loading...
Error

Молодая гвардия (серии 1-12 из 12) (Леонид Пляскин) [2015 г., военный, драма, WEBRip]

Статистика раздачи
Размер:  7,14 GB   |    Зарегистрирован:  1 год 6 месяцев   |    Скачан:  24 раза

Полного источника не было: 22 дня

Сидов:  0  |  0 KB/s  ]   Личеров:  0  |  0 KB/s  ]

* - сиды/пиры с внешних источников

   
 
Автор Сообщение

nemos Пол:Муж

04-Май-2015 18:50

Молодая гвардия (2015) WEBRip

Производство: Россия, "Профит"
Жанр: военный, драма

Режиссер: Леонид Пляскин
Актеры: Никита Тезин, Катерина Шпица, Юрий Борисов, Вячеслав Чепурченко, Ирина Горбачева, Юрий Чурсин, Владислав Кузнецов, Виктор Хориняк, Полина Пушкарук, Сергей Яковлев, Илья Кожухарь, Карина Гондагсазян, Иван Решетняк, Алексей Вертков, Лариса Шахворостова, Андрей Гусев, Анастасия Мытражик, Евгения Дмитриева, Василий Миролюбов, Максим Сапрыкин, Григорий Зельцер, Валерий Карпов, Сергей Яценюк, Илья Антоненко, Дмитрий Быковский-Ромашов, Николай Сердцев

Описание:
Фильм рассказывает о событиях 1942-43 годов, происшедших в оккупированном немецкими войсками небольшом городке Краснодоне. Вчерашние школьники создают подпольную организацию и начинают свою борьбу против фашистов.

Дата российской премьеры: 1 мая 2015

Продолжительность: ~00:49:00 серия
Качество видео: WEBRip
Формат: AVI
Видеокодек: XviD
Битрейт видео: 1500 kbps
Размер кадра: 720x400
Аудиокодек: AC3 2.0
Битрейт аудио: 192 kbps
Общее
Полное имя : D:\Молодая гвардия.2015.WEBRip.NNM-CLUB\01.серия.avi
Формат : AVI
Формат/Информация : Audio Video Interleave
Размер файла : 600 Мбайт
Продолжительность : 49 м.
Общий поток : 1702 Кбит/сек
Программа кодирования : VirtualDubMod 1.5.10.3 | (build 2550/release)
Библиотека кодирования : VirtualDubMod build 2550/release

Видео
Идентификатор : 0
Формат : MPEG-4 Visual
Профиль формата : Advanced Simple@L5
Параметр BVOP формата : 2
Параметр QPel формата : Нет
Параметр GMC формата : Без точки перехода
Параметр матрицы формата : Default (MPEG)
Идентификатор кодека : XVID
Идентификатор кодека/Подсказка : XviD
Продолжительность : 49 м.
Битрейт : 1500 Кбит/сек
Ширина : 720 пикселей
Высота : 400 пикселей
Соотношение сторон : 16:9
Частота кадров : 25,000 кадров/сек
Цветовое пространство : YUV
Субдискретизация насыщенности : 4:2:0
Битовая глубина : 8 бит
Тип развёртки : Прогрессивная
Метод сжатия : С потерями
Бит/(Пиксели*Кадры) : 0.208
Размер потока : 529 Мбайт (88%)
Библиотека кодирования : XviD 1.2.1 (UTC 2008-12-04)

Аудио
Идентификатор : 1
Формат : AC-3
Формат/Информация : Audio Coding 3
Расширение режима : CM (complete main)
Параметр Endianness формата : Big
Идентификатор кодека : 2000
Продолжительность : 49 м.
Вид битрейта : Постоянный
Битрейт : 192 Кбит/сек
Каналы : 2 канала
Расположение каналов : Front: L R
Частота : 44,1 КГц
Битовая глубина : 16 бит
Метод сжатия : С потерями
Размер потока : 67,7 Мбайт (11%)
Выравнивание : Разделение по промежуткам
Продолжительность промежутка : 40 мс. (1,00 видеокадр)
Время предзагрузки промежутка : 500 мс.
Внимание! Раздача ведётся путём добавления новых серий; при каждом добавлении создаётся новый торрент.
Чтобы начать докачку новой серии, пользователям необходимо сделать следующее:
1. Остановить скачивание;
2. Удалить старый торрент у себя из клиента (старые серии удалять не надо);
3. Скачать новый торрент и запустить его у себя в клиенте вместо старого, при этом указать клиенту путь в старую папку куда и должно происходить скачивание новых серий. Ваш клиент при этом должен произвести хеширование (проверку) старой папки и будет докачивать только те серии, которых у вас ещё нет. Старые серии при этом не удаляются, а продолжают раздаваться! Eсли вы уже удалили старые серии, то предотвратить повторную закачку старых серий можно, отжав галочку в соответствующих местах при запуске нового торрента.
Скриншоты:
picpicpicpic

Этот торрент недоступен для скачивания без регистрации, однако доступен по публичной magnet-ссылке (источники с публичных трекеров). Перед использованием ссылки прочтите, пожалуйста Пользовательское соглашение, а также как можно дольше оставайтесь на раздаче! Для того, чтобы скачать сам торрент-файл (который видит больше источников), а также для того, чтобы поблагодарить релизера, вам необходимо зарегистрироваться. Если регистрироваться лень - вы можете также попробовать скачать релиз по нашим партнерским ссылкам ниже.

[underverse.su].t54509.torrent
Трекер: Зарегистрирован   [ 11.05.2015 16:57 ]  

Статус: проверено (by nemos at 11.05.2015 16:57)
Поблагодарили: 2 человека
Тип торрента: публичный - доступные источники с открытых трекеров: 
Размер: 7,14 GB (занимает 1,63 DVDR, для записи нужно 2 болванки DVDR/RW)
 
 
Похожие темы
Форум Тема Автор Торрент Отв. Посл. сооб.
T xUSSR сериалы [BD / Remux / BDRip / WEB-DL / HDTV 1080/720р] Молодая гвардия (серии 1-6 из 12) (Леонид Пляскин) [2015 г., военный, драма, WEBRip 720p] (обновляемая) nemos
0 | 0

0 | 940

7

04.05.2015 18:38


Яндекс.Метрика powered by Sphinx


В Н И М А Н И Е
Сайт не распространяет и не хранит электронные версии произведений, а лишь бесплатно и без коммерческой выгоды (не требуя взамен платы,
SMS и т.д.) предоставляет доступ к создаваемому пользователями каталогу ссылок на торрент-файлы, которые содержат только списки хеш-сумм.
Убедительная просьба с жалобами обращаться напрямую к пользователю, разместившему торрент файл.

Вверх