Loading...
Error

Истребители (2 сезон /cерии 1-12 из 12) (Зиновий Ройзман) [2015 г., военный, драма, WEB-DLRip]

Статистика раздачи
Размер:  7,62 GB   |    Зарегистрирован:  1 год 6 месяцев   |    Скачан:  24 раза

Полного источника не было: 2 дня 11 часов

Сидов:  0  |  0 KB/s  ]   Личеров:  0  |  0 KB/s  ]

* - сиды/пиры с внешних источников

   
 
Автор Сообщение

nemos Пол:Муж

04-Май-2015 17:59

Истребители. Последний бой (2015) WEB-DLRip

Выпущено: Россия, "Стар Медиа"
Жанр: военный, драма

Режиссер: Зиновий Ройзман
Актеры: Дмитрий Дюжев, Дмитрий Арбенин, Мария Андреева, Денис Константинов, Валентин Касьян, Алексей Демидов, Антон Сёмкин, Альберт Аванесян, Олеся Судзиловская, Валерия Ланская, Олег Никитин, Сергей Шаталов, Анастасия Веденская, Светлана Столярова, Ольга Филиппова, Сергей Лобанов, Дарья Белоусова, Павел Конек, Юрий Маслак, Мария Хижняк, Илья Рубанов, Анастасия Макеева, Алексей Овсянников, Анастасия Сорокина, Елена Махова, Игорь Литовкин

Описание:
Для обеспечения советского наступления подполковник Бестужев получает приказ о формировании авиационного полка на базе новейших истребителей ЯК3. Для этого он собирает старых боевых товарищей, лучших выпускников летных училищ. В его полку служат не только мужчины, но и отважные красавицы летчицы. Им предстоит нелегкая задача разгадать хитроумный немецкий оборонительный план под экзотическим названием «Восточная шкатулка»… В самый разгар ожесточенных воздушных боев в помощь советским летчикам прибывает эскадрилья французских пилотов. Для смелого летчика не только война становится моральным испытанием, но и любовь.

Дата российской премьеры: 4 мая 2015

Продолжительность: ~ 00:52:00 серия

Качество видео: WEB-DLRip
Формат: AVI
Видеокодек: XviD
Битрейт видео: 1600 kbps
Размер кадра: 720x400
Аудиокодек: AC3 2.0
Битрейт аудио: 128 kbps
Общее
Полное имя : D:\Истребители.Последний.бой.2015.WEB-DLRip.NNM-CLUB\01.серия.avi
Формат : AVI
Формат/Информация : Audio Video Interleave
Размер файла : 650 Мбайт
Продолжительность : 52 м.
Общий поток : 1738 Кбит/сек
Программа кодирования : VirtualDubMod 1.5.10.3 | (build 2550/release)
Библиотека кодирования : VirtualDubMod build 2550/release

Видео
Идентификатор : 0
Формат : MPEG-4 Visual
Профиль формата : Advanced Simple@L5
Параметр BVOP формата : 2
Параметр QPel формата : Нет
Параметр GMC формата : Без точки перехода
Параметр матрицы формата : Default (MPEG)
Идентификатор кодека : XVID
Идентификатор кодека/Подсказка : XviD
Продолжительность : 52 м.
Битрейт : 1600 Кбит/сек
Ширина : 720 пикселей
Высота : 400 пикселей
Соотношение сторон : 16:9
Частота кадров : 25,000 кадров/сек
Цветовое пространство : YUV
Субдискретизация насыщенности : 4:2:0
Битовая глубина : 8 бит
Тип развёртки : Прогрессивная
Метод сжатия : С потерями
Бит/(Пиксели*Кадры) : 0.222
Размер потока : 598 Мбайт (92%)
Библиотека кодирования : XviD 1.2.1 (UTC 2008-12-04)

Аудио
Идентификатор : 1
Формат : AC-3
Формат/Информация : Audio Coding 3
Расширение режима : CM (complete main)
Параметр Endianness формата : Big
Идентификатор кодека : 2000
Продолжительность : 52 м.
Вид битрейта : Постоянный
Битрейт : 128 Кбит/сек
Каналы : 2 канала
Расположение каналов : Front: L R
Частота : 44,1 КГц
Битовая глубина : 16 бит
Метод сжатия : С потерями
Размер потока : 47,9 Мбайт (7%)
Выравнивание : Разделение по промежуткам
Продолжительность промежутка : 40 мс. (1,00 видеокадр)
Время предзагрузки промежутка : 500 мс.
Внимание! Раздача ведётся путём добавления новых серий; при каждом добавлении создаётся новый торрент.
Чтобы начать докачку новой серии, пользователям необходимо сделать следующее:
1. Остановить скачивание;
2. Удалить старый торрент у себя из клиента (старые серии удалять не надо);
3. Скачать новый торрент и запустить его у себя в клиенте вместо старого, при этом указать клиенту путь в старую папку куда и должно происходить скачивание новых серий. Ваш клиент при этом должен произвести хеширование (проверку) старой папки и будет докачивать только те серии, которых у вас ещё нет. Старые серии при этом не удаляются, а продолжают раздаваться! Eсли вы уже удалили старые серии, то предотвратить повторную закачку старых серий можно, отжав галочку в соответствующих местах при запуске нового торрента.
picpicpicpic

Этот торрент недоступен для скачивания без регистрации, однако доступен по публичной magnet-ссылке (источники с публичных трекеров). Перед использованием ссылки прочтите, пожалуйста Пользовательское соглашение, а также как можно дольше оставайтесь на раздаче! Для того, чтобы скачать сам торрент-файл (который видит больше источников), а также для того, чтобы поблагодарить релизера, вам необходимо зарегистрироваться. Если регистрироваться лень - вы можете также попробовать скачать релиз по нашим партнерским ссылкам ниже.

[underverse.su].t54464.torrent
Трекер: Зарегистрирован   [ 08.05.2015 16:55 ]  

Статус: проверено (by nemos at 08.05.2015 16:55)
Поблагодарили: 3 человека
Тип торрента: публичный - доступные источники с открытых трекеров: 
Размер: 7,62 GB (занимает 1,74 DVDR, для записи нужно 2 болванки DVDR/RW)
 
 
Похожие темы
Форум Тема Автор Торрент Отв. Посл. сооб.
Зарубежное кино [DVDRip, Low-Res HDRip, и т.д.] Истребители духов / Ghost Sweepers (Шин Чон Вон) [2012 г., мистика, комедия, HDRip] DVO (den904, DeadSno) 90ytr90
0 | 0

0 | 1441

16

01.01.2013 08:48

Зарубежное кино [DVDRip, Low-Res HDRip, и т.д.] Истребитель зомби / Хуан - истребитель кубинских зомби / Juan de los Muertos (Алехандро Бругес) [2011 г., ужасы, комедия, HDRip] Dub (чистый звук) 90ytr90
3 | 0

0 | 1080

9

24.04.2013 17:02

xUSSR сериалы Истребители / Серии: 1-12 (12) (Алексей Мурадов) [2013, Военный, драма , SATRip] nemos
0 | 0

3 | 1501

51

25.04.2013 14:08

xUSSR сериалы Истребители (Штурмовики) (12 из 12 серий) 2013 (Алексей Мурадов) [2013 г., Военный фильм, драма, ВОВ, WEB-DLRip] vasilich619
0 | 0

0 | 1530

20

07.09.2013 23:16

Научно-популярные фильмы Истребитель пятого поколения [2013г., Документальный, DVBRip-AVC] Печаль'ka
0 | 0

1 | 739

18

24.09.2013 14:13

xUSSR сериалы [BD / Remux / BDRip / WEB-DL / HDTV 1080/720р] Истребители / Серии 1-12 (12) (Алексей Мурадов) [2013 г., драма, военный, WEBDLRip 720p] Чертёнок
1 | 0

0 | 1218

50

25.04.2013 19:14

xUSSR сериалы [BD / Remux / BDRip / WEB-DL / HDTV 1080/720р] Истребители (2 сезон /cерии 1-12 из 12) (Зиновий Ройзман) [2015 г., военный, драма, WEB-DL 1080p] nemos
6 | 1

2 | 1116

17

31.10.2015 10:30



Последний раз редактировалось: nemos (12.07.2015 17:03), всего редактировалось 4 раз(а)

nemos Пол:Муж

05-Май-2015 22:08

Раздача обновлена! Добавлена серия: 12

Яндекс.Метрика powered by Sphinx


В Н И М А Н И Е
Сайт не распространяет и не хранит электронные версии произведений, а лишь бесплатно и без коммерческой выгоды (не требуя взамен платы,
SMS и т.д.) предоставляет доступ к создаваемому пользователями каталогу ссылок на торрент-файлы, которые содержат только списки хеш-сумм.
Убедительная просьба с жалобами обращаться напрямую к пользователю, разместившему торрент файл.

Вверх