Loading...
Error

Волшебная страна чудес / Magic Wonderland (Цзяньрон Ву, Леон Динг) [2014 г., Мультфильм, фэнтези, приключения, анимация, сказка, WEB-DLRip] Dub

Статистика раздачи
Размер:  746 MB   |    Зарегистрирован:  1 год 7 месяцев   |    Скачан:  29 раз

Полного источника не было: 3 месяца 4 дня

Сидов:  0  |  0 KB/s  ]   Личеров:  0  |  0 KB/s  ]

* - сиды/пиры с внешних источников

   
 
Автор Сообщение

dnestrovsk Пол:Муж

03-Май-2015 10:11

Волшебная страна чудес / Magic Wonderland


Год выпуска: 2014
Жанр: Мультфильм, фэнтези, приключения, анимация, сказка
Страна: Китай
Режиссер: Цзяньрон Ву, Леон Динг
Сюжет фильма:
В небольшой рыбацкой деревушке живет девочка по имени Океана. Она умеет разговаривать с морскими обитателями. Девочка не знает, откуда у нее этот дар и ничего не помнит о своем прошлом. Но однажды к ней является фея волны, которая открывает ей тайну. На самом деле Океана — дочь морской волшебницы, на которую злой дух наложил свои чары. Чтобы спасти маму, юная волшебница должна отправиться в непростое путешествие в далекую Страну Чудес. В пути ее ждет встреча с пиратами, злым колдуном и даже могущественным духом огня, но когда рядом с тобой верные друзья, ничего не страшно.


Качество видео: WEB-DLRip

Продолжительность: 01:31:20
Формат: AVI
Видео: XviD, 720x320, 1032 kbps
Аудио: русский, дублированный, MP3 2.0, 128 kbps

Код:

Общее
Полное имя                             : Magic Wonderland.2014_745_Olu6ka.avi
Формат                                   : AVI
Формат/Информация             : Audio Video Interleave
Размер файла                         : 746 Мбайт
Продолжительность               : 1 ч. 29 м.
Общий поток                          : 1170 Кбит/сек
Название фильма                   : M
Программа кодирования        : V
Авторское право                    : O

Видео
Идентификатор                      : 0
Формат                                    : MPEG-4 Visual
Профиль формата                   : Advanced Simple@L5
Параметр BVOP формата        : 1
Параметр QPel формата         : Нет
Параметр GMC формата         : Без точки перехода
Параметр матрицы формата  : Выборочная
Идентификатор кодека          : XVID
Идентификатор кодека/Подсказка: XviD
Продолжительность                        : 1 ч. 29 м.
Битрейт                                   : 1032 Кбит/сек
Ширина                                   : 720 пикселей
Высота                                     : 320 пикселей
Соотношение сторон              : 2,25:1
Частота кадров                       : 25,000 кадров/сек
Цветовое пространство          : YUV
Субдискретизация насыщенности            : 4:2:0
Битовая глубина                          : 8 бит
Тип развёртки                            : Прогрессивная
Метод сжатия                             : С потерями
Бит/(Пиксели*Кадры)                      : 0.179
Размер потока                            : 658 Мбайт (88%)
Библиотека кодирования                   : XviD 73

Аудио
Идентификатор                            : 1
Формат                                   : MPEG Audio
Версия формата                           : Version 1
Профиль формата                          : Layer 3
Режим                                    : Joint stereo
Расширение режима                        : MS Stereo
Идентификатор кодека                     : 55
Идентификатор кодека/Подсказка           : MP3
Продолжительность                        : 1 ч. 29 м.
Вид битрейта                             : Постоянный
Битрейт                                  : 128 Кбит/сек
Каналы                                   : 2 канала
Частота                                  : 48,0 КГц
Метод сжатия                             : С потерями
Размер потока                            : 81,6 Мбайт (11%)
Выравнивание                             : Разделение по промежуткам
Продолжительность промежутка             : 40  мс. (1,00 видеокадр)
Время предзагрузки промежутка            : 500  мс.
Семпл: http://sendfile.su/1099390

picpicpicpicpic
Для увеличения картинки щелкните мышкой по превью

Этот торрент недоступен для скачивания без регистрации, однако доступен по публичной magnet-ссылке (источники с публичных трекеров). Перед использованием ссылки прочтите, пожалуйста Пользовательское соглашение, а также как можно дольше оставайтесь на раздаче! Для того, чтобы скачать сам торрент-файл (который видит больше источников), а также для того, чтобы поблагодарить релизера, вам необходимо зарегистрироваться. Если регистрироваться лень - вы можете также попробовать скачать релиз по нашим партнерским ссылкам ниже.

[underverse.su].t54272.torrent
Трекер: Зарегистрирован   [ 03.05.2015 10:11 ]  

Статус: проверено (by makkol at 19.11.2015 23:13)
Поблагодарили: 1 человек
Тип торрента: публичный - доступные источники с открытых трекеров: 
Размер: 746 MB (занимает 0,17 DVDR, для записи нужно 1 болванка DVDR/RW)
 
 
Похожие темы
Форум Тема Автор Торрент Отв. Посл. сооб.
Зарубежное кино [DVDRip, Low-Res HDRip, и т.д.] Волшебная долина / Magic Valley (Джаффе Зинн / Jaffe Zinn) [2011 г., драма, HDRip] DVO Паукан
1 | 0

0 | 850

14

03.07.2013 09:00

* Зарубежные сериалы Волшебная шкатулка / Шкатулка наслаждений / The Box of Delights (1-6 из 6) (Ренни Рай) [1984 г., фэнтези, семейный, DVDRip] VO + Original + Subs makkol
1 | 0

1 | 301

1

02.06.2016 09:47


Яндекс.Метрика powered by Sphinx


В Н И М А Н И Е
Сайт не распространяет и не хранит электронные версии произведений, а лишь бесплатно и без коммерческой выгоды (не требуя взамен платы,
SMS и т.д.) предоставляет доступ к создаваемому пользователями каталогу ссылок на торрент-файлы, которые содержат только списки хеш-сумм.
Убедительная просьба с жалобами обращаться напрямую к пользователю, разместившему торрент файл.

Вверх