Loading...
Error

Седьмой сын / Seventh Son (Сергей Бодров) [2014 г., фэнтези, приключения, BDRip] Dub + Original + Sub (Rus,Ukr,Eng) HQ Underverse

Статистика раздачи
Размер:  2,18 GB   |    Зарегистрирован:  1 год 7 месяцев   |    Скачан:  36 раз
Сидов:  2  |  0 KB/s  ]   Личеров:  0  |  0 KB/s  ]

* - сиды/пиры с внешних источников

   
 
Автор Сообщение

HQ Underverse 

30-Апр-2015 10:30

Седьмой сын / Seventh Son


Год выпуска: 2014
Жанр: фэнтези, приключения
Страна: США , Великобритания , Канада , Китай
Режиссер: Сергей Бодров
В ролях: Бен Барнс, Джефф Бриджес, Джулианна Мур, Алисия Викандер, Кит Харингтон, Джимон Хонсу, Оливия Уильямс, Антье Трауэ, Джейсон Скотт Ли, Дэвид Кабитт
Сюжет фильма:
Рассказ в фильме пойдет про парня, который, так уж вышло, стал седьмым сыном седьмого сына. А только такой человек может стать ведьмаком. Но этого недостаточно, чтобы именовать себя так — необходимо пройти массу тренировок, а также усердно учиться. Ведь главное оружие ведьмака — это его ум. Хоть в народе их не любят, но кто-то же обязан убивать нечисть, хранить землю от сил зла и делать всю грязную работу? Юный Том Уорд попробует стать тем самым учеником ведьмака.

  • Мировая премьера: 17 декабря 2014
  • Российская премьера: 1 января 2015, «UPI»

/
Качество видео: BDRip

Продолжительность: 01:41:59
Формат: avi
Видео: XviD, 720x304, 2151 kbps
Аудио #1: русский, дублированный [лицензия], AC3 5.1, 448 kbps
Аудио #2: английский, оригинал, AC3 5.1, 448 kbps
Субтитры #1: внешние, SRT, русский
Субтитры #2: внешние, SRT, украинский
Субтитры #3: внешние, SRT, английский

Код:

General
Complete name                    : Y:\Седьмой Сын\Seventh.Son.2014.BDRip.XviD.AC3.Rus.D.Eng.O.HQ.Underverse.avi
Format                           : AVI
Format/Info                      : Audio Video Interleave
Format profile                   : OpenDML
File size                        : 2.18 GiB
Duration                         : 1h 41mn
Overall bit rate                 : 3 066 Kbps
Writing application              : VirtualDubMod 1.5.10.3 | www.virtualdub-fr.org || (build 2550/release)
Writing library                  : VirtualDubMod build 2550/release

Video
ID                               : 0
Format                           : MPEG-4 Visual
Format profile                   : Streaming Video@L1
Format settings, BVOP            : Yes
Format settings, QPel            : No
Format settings, GMC             : No warppoints
Format settings, Matrix          : Custom
Codec ID                         : XVID
Codec ID/Hint                    : XviD
Duration                         : 1h 41mn
Bit rate                         : 2 151 Kbps
Width                            : 720 pixels
Height                           : 304 pixels
Display aspect ratio             : 2.35
Frame rate                       : 23.976 fps
Resolution                       : 24 bits
Colorimetry                      : 4:2:0
Scan type                        : Progressive
Bits/(Pixel*Frame)               : 0.410
Stream size                      : 1.53 GiB (70%)
Writing library                  : XviD 66

Audio #1
ID                               : 1
Format                           : AC-3
Format/Info                      : Audio Coding 3
Codec ID                         : 2000
Duration                         : 1h 41mn
Bit rate mode                    : Constant
Bit rate                         : 448 Kbps
Channel(s)                       : 6 channels
Channel positions                : Front: L C R, Surround: L R, LFE
Sampling rate                    : 48.0 KHz
Stream size                      : 327 MiB (15%)
Alignment                        : Split accross interleaves
Interleave, duration             : 42 ms (1.00 video frame)
Interleave, preload duration     : 500 ms

Audio #2
ID                               : 2
Format                           : AC-3
Format/Info                      : Audio Coding 3
Codec ID                         : 2000
Duration                         : 1h 41mn
Bit rate mode                    : Constant
Bit rate                         : 448 Kbps
Channel(s)                       : 6 channels
Channel positions                : Front: L C R, Surround: L R, LFE
Sampling rate                    : 48.0 KHz
Stream size                      : 327 MiB (15%)
Alignment                        : Split accross interleaves
Interleave, duration             : 42 ms (1.00 video frame)
Interleave, preload duration     : 500 ms

Релиз группы:

picpicpic
Для увеличения картинки щелкните мышкой по превью

Этот торрент недоступен для скачивания без регистрации, однако доступен по публичной magnet-ссылке (источники с публичных трекеров). Перед использованием ссылки прочтите, пожалуйста Пользовательское соглашение, а также как можно дольше оставайтесь на раздаче! Для того, чтобы скачать сам торрент-файл (который видит больше источников), а также для того, чтобы поблагодарить релизера, вам необходимо зарегистрироваться. Если регистрироваться лень - вы можете также попробовать скачать релиз по нашим партнерским ссылкам ниже.

[underverse.su].t54198.torrent
Трекер: Зарегистрирован   [ 30.04.2015 10:30 ]  

Статус: проверено (by HQ Underverse at 30.04.2015 10:30)
Поблагодарили: 1 человек
Тип торрента: публичный - доступные источники с открытых трекеров: 
Размер: 2,18 GB (занимает 1/2 DVDR, для записи нужно 1 болванка DVDR/RW)
 
 
Похожие темы
Форум Тема Автор Торрент Отв. Посл. сооб.
Зарубежное кино [DVDRip, Low-Res HDRip, и т.д.] Седьмой сын / Seventh Son (Сергей Бодров ст.) [2014 г., фэнтези, приключения, HDRip] Dub [лицензия] + Original Паукан
1 | 0

0 | 558

9

22.04.2015 12:59

Зарубежное кино [DVDRip, Low-Res HDRip, и т.д.] Седьмой сын / Seventh Son (Сергей Бодров ст.) [2014 г., фэнтези, приключения, HDRip] Dub [лицензия] Паукан
14 | 0

2 | 898

64

18.05.2015 17:59

Зарубежное кино [DVDRip, Low-Res HDRip, и т.д.] Седьмой сын / Seventh Son (Сергей Бодров) [2014 г., фэнтези, приключения, HDRip-AVC] Dub [Лицензия] + Original + Sub (Rus,Ukr,Eng) Паукан
3 | 0

0 | 784

43

22.04.2015 13:05

Зарубежное кино [HDDVDRip / BDRip / WEB-DL / HDTV 1080/720р] Седьмой сын / Seventh Son (Сергей Бодров ст.) [2014 г., фэнтези, приключения, BDRip 720p] Dub [лицензия] + Original + Sub (Rus,Eng,Ukr) Паукан
1 | 0

0 | 589

21

22.04.2015 12:47

Зарубежное кино [HDDVDRip / BDRip / WEB-DL / HDTV 1080/720р] Седьмой сын / Seventh Son (Сергей Бодров ст.) [2014 г., фэнтези, приключения, BDRip 1080p] Dub [лицензия] + Original + Sub (Rus,Ukr,Eng) Паукан
3 | 0

0 | 833

31

22.04.2015 12:55


Яндекс.Метрика powered by Sphinx


В Н И М А Н И Е
Сайт не распространяет и не хранит электронные версии произведений, а лишь бесплатно и без коммерческой выгоды (не требуя взамен платы,
SMS и т.д.) предоставляет доступ к создаваемому пользователями каталогу ссылок на торрент-файлы, которые содержат только списки хеш-сумм.
Убедительная просьба с жалобами обращаться напрямую к пользователю, разместившему торрент файл.

Вверх