Loading...
Error

Схватка / Heat (Майкл Манн / Michael Mann) [1995 г., боевик, триллер, драма, криминал, BDRip] AVO(Rus) + MVO (Ukr) + Original HQ Underverse

Статистика раздачи
Размер:  2,9 GB   |    Зарегистрирован:  1 год 7 месяцев   |    Скачан:  31 раз

Полного источника не было: 7 часов

Сидов:  0  |  0 KB/s  ]   Личеров:  0  |  0 KB/s  ]

* - сиды/пиры с внешних источников

   
 
Автор Сообщение

HQ Underverse 

29-Апр-2015 15:22

Схватка / Heat


Год выпуска: 1995
Жанр: боевик, триллер, драма, криминал
Страна: США
Режиссер: Майкл Манн / Michael Mann
В ролях: Аль Пачино, Роберт Де Ниро, Вэл Килмер, Том Сайзмор, Эми Бреннеман, Джон Войт, Дайан Венора, Эшли Джадд, Майкелти Уильямсон, Уэс Стьюди
Сюжет фильма:
Нил МакКоли — преступник. Один из лучших, если можно так сказать о преступнике, в Лос-Анджелесе, а быть может, и во всей Америке. И работать с ним вместе почитают за честь супер-профессионалы криминального мира. Но против него выступает Винсент Ханна. Детектив. Один из лучших в Лос-Анджелесе, а быть может, и во всей Америке. У Винсента и Нила очень много общего. Вероятно, общего у них даже больше, чем отличий. Однако они все же стоят по разные стороны закона. Две сильнейшие команды сошлись друг против друга. Только речь идет не о спортивном состязании, а о схватке не на жизнь, а на смерть…

  • Мировая премьера: 15 декабря 1995

/
Качество видео: BDRip [Japan Transfer]

Продолжительность: 02:50:26
Формат: avi
Видео: XviD, 720x304, 1981 kbps
Аудио #1: русский, одноголосый закадровый [профессиональный, Гоблин], AC3 5.1, 448 kbps
Аудио #2: украинский, многоголосый закадровый [профессиональный, Новий Канал/ICTV], AC3 2.0, 192 kbps (отдельным файлом)
Аудио #3: английский, оригинал, AC3 5.1, 448 kbps (отдельным файлом)

Семпл: http://multi-up.com/1046124

Релиз группы:

Код:

General
Complete name                    : D:\Video\Movies\Releases\Heat.1995.BDRip.XviD.AC3.Rus.AVO.HQ.Underverse.avi
Format                           : AVI
Format/Info                      : Audio Video Interleave
Format profile                   : OpenDML
File size                        : 2.90 GiB
Duration                         : 2h 50mn
Overall bit rate                 : 2 440 Kbps
Writing application              : VirtualDubMod 1.5.10.3 | www.virtualdub-fr.org || (build 2550/release)
Writing library                  : VirtualDubMod build 2550/release

Video
ID                               : 0
Format                           : MPEG-4 Visual
Format profile                   : Streaming Video@L1
Format settings, BVOP            : Yes
Format settings, QPel            : No
Format settings, GMC             : No warppoints
Format settings, Matrix          : Custom
Codec ID                         : XVID
Codec ID/Hint                    : XviD
Duration                         : 2h 50mn
Bit rate                         : 1 981 Kbps
Width                            : 720 pixels
Height                           : 304 pixels
Display aspect ratio             : 2.35
Frame rate                       : 23.976 fps
Resolution                       : 24 bits
Colorimetry                      : 4:2:0
Scan type                        : Progressive
Bits/(Pixel*Frame)               : 0.378
Stream size                      : 2.36 GiB (81%)
Writing library                  : XviD 64

Audio
ID                               : 1
Format                           : AC-3
Format/Info                      : Audio Coding 3
Codec ID                         : 2000
Duration                         : 2h 50mn
Bit rate mode                    : Constant
Bit rate                         : 448 Kbps
Channel(s)                       : 6 channels
Channel positions                : Front: L C R, Surround: L R, LFE
Sampling rate                    : 48.0 KHz
Stream size                      : 546 MiB (18%)
Alignment                        : Split accross interleaves
Interleave, duration             : 42 ms (1.00 video frame)
Interleave, preload duration     : 500 ms
Title                            : Goblin

General
Complete name                    : D:\Video\Movies\Releases\Heat.1995.BDRip.XviD.AC3.Rus.AVO.HQ.Underverse.Eng.ac3
Format                           : AC-3
Format/Info                      : Audio Coding 3
File size                        : 546 MiB
Duration                         : 2h 50mn
Overall bit rate                 : 448 Kbps

Audio
Format                           : AC-3
Format/Info                      : Audio Coding 3
Duration                         : 2h 50mn
Bit rate mode                    : Constant
Bit rate                         : 448 Kbps
Channel(s)                       : 6 channels
Channel positions                : Front: L C R, Surround: L R, LFE
Sampling rate                    : 48.0 KHz
Stream size                      : 546 MiB (100%)

General
Complete name                    : D:\Video\Movies\Releases\Heat.1995.BDRip.XviD.AC3.Rus.AVO.HQ.Underverse.Ukr.MVO.Novyi.ac3
Format                           : AC-3
Format/Info                      : Audio Coding 3
File size                        : 234 MiB
Duration                         : 2h 50mn
Overall bit rate                 : 192 Kbps

Audio
Format                           : AC-3
Format/Info                      : Audio Coding 3
Duration                         : 2h 50mn
Bit rate mode                    : Constant
Bit rate                         : 192 Kbps
Channel(s)                       : 2 channels
Channel positions                : L R
Sampling rate                    : 48.0 KHz
Stream size                      : 234 MiB (100%)

picpicpicpic
Для увеличения картинки щелкните мышкой по превью

Этот торрент недоступен для скачивания без регистрации, однако доступен по публичной magnet-ссылке (источники с публичных трекеров). Перед использованием ссылки прочтите, пожалуйста Пользовательское соглашение, а также как можно дольше оставайтесь на раздаче! Для того, чтобы скачать сам торрент-файл (который видит больше источников), а также для того, чтобы поблагодарить релизера, вам необходимо зарегистрироваться. Если регистрироваться лень - вы можете также попробовать скачать релиз по нашим партнерским ссылкам ниже.

[underverse.su].t54191.torrent
Трекер: Зарегистрирован   [ 29.04.2015 15:35 ]  

Статус: проверено (by HQ Underverse at 30.04.2015 10:13)
Поблагодарили: 2 человека
Тип торрента: публичный - доступные источники с открытых трекеров: 
Размер: 2,9 GB (занимает 2/3 DVDR, для записи нужно 1 болванка DVDR/RW)
 
 
Похожие темы
Форум Тема Автор Торрент Отв. Посл. сооб.
Зарубежное кино [DVDRip, Low-Res HDRip, и т.д.] Схватка / The Grey (Джо Карнахан) [2012 г., боевик, триллер, драма, приключения, HDRip] 90ytr90
0 | 0

2 | 1606

33

03.04.2012 12:27

Зарубежное кино [DVDRip, Low-Res HDRip, и т.д.] Схватка / Heat (Майкл Манн) [1995 г., боевик, триллер, драма, криминал, BDRip] Ripodelnia
3 | 0

2 | 700

11

16.07.2012 15:28

Зарубежное кино [DVDRip, Low-Res HDRip, и т.д.] Схватка / The Grey (Джо Карнахан / Joe Carnahan) [2012 г., боевик, триллер, драма, приключения, BDRip] Dub 90ytr90
6 | 0

0 | 1261

34

17.09.2013 13:07

Зарубежное кино [DVDRip, Low-Res HDRip, и т.д.] Схватка / Heat (Майкл Манн / Michael Mann) [1995 г., боевик, криминал, драма, BDRip] MVO garry
1 | 0

0 | 615

18

28.01.2014 07:42

Зарубежное кино HQ Схватка / The Grey (Джо Карнахан) [2012 г., боевик, триллер, драма, приключения, HDRip] (Rus) HQ Underverse HQ Underverse
0 | 0

1 | 1586

45

31.12.2012 16:12

Зарубежное кино [HDDVDRip / BDRip / WEB-DL / HDTV 1080/720р] Схватка / The Grey (Джо Карнахан / Joe Carnahan) [2012, США, боевик, триллер, драма, BDRip 720p] Dub Чертёнок
10 | 0

0 | 503

3

17.09.2013 10:54

Зарубежное кино [HDDVDRip / BDRip / WEB-DL / HDTV 1080/720р] Схватка / Heat (Майкл Манн / Michael Mann) [1995 г., боевик, криминал, драма, BDRip 720p] 3xMVO + AVO garry
4 | 0

0 | 469

5

28.01.2014 08:06


Яндекс.Метрика powered by Sphinx


В Н И М А Н И Е
Сайт не распространяет и не хранит электронные версии произведений, а лишь бесплатно и без коммерческой выгоды (не требуя взамен платы,
SMS и т.д.) предоставляет доступ к создаваемому пользователями каталогу ссылок на торрент-файлы, которые содержат только списки хеш-сумм.
Убедительная просьба с жалобами обращаться напрямую к пользователю, разместившему торрент файл.

Вверх