Loading...
Error

(Pop) Дмитрий Маликов - 25+ (2013) [FLAC (Image+.CUE), Lossless]

Статистика раздачи
Размер:  362 MB   |    Зарегистрирован:  3 года 4 месяца   |    Скачан:  6 раз

Полного источника не было: 23 часа

Сидов:  0  |  0 KB/s  ]   Личеров:  0  |  0 KB/s  ]

* - сиды/пиры с внешних источников

   
 
Автор Сообщение

Бишеп Пол:Муж

29-Апр-2015 08:18

Дмитрий Маликов - 25+

Жанр: Pop
Год выпуска: 2013
Источник: CD
Производитель диска: Квадро-диск UMGCD13-275
Аудиокодек: FLAC
Тип рипа: Image+.CUE
Битрейт аудио: lossless
Продолжительность: 00:50:09


Треклист:
01. Я так скучаю по тебе
02. Лети (Песня выпускнице)
03. Моя душа
04. Нам по пути
05. Больше не моя
06. Ждать новой весны
07. Робин Гуд
08. Не убивай мечту
09. Сильно любить
10. Тебе одной
11. Два пистолета
12. Прости, любимая, прости
13. Мой отец (feat. В. Пресняков)
14. Однажды

Код:

Exact Audio Copy V1.0 beta 4 from 7. December 2014

Отчёт EAC об извлечении, выполненном 28. февраля 2015, 23:44

Маликов Дмитрий / 25+

Дисковод: Optiarc DVD RW AD-7760H   Adapter: 1  ID: 0

Режим чтения                 : Достоверность
Использование точного потока : Да
Отключение кэша аудио        : Да
Использование указателей C2  : Нет

Коррекция смещения при чтении                     : 48
Способность читать области Lead-in и Lead-out     : Нет
Заполнение пропущенных сэмплов тишиной            : Да
Удаление блоков с тишиной в начале и конце        : Нет
При вычислениях CRC использовались нулевые сэмплы : Да
Интерфейс                                         : Встроенный Win32-интерфейс для Win NT/2000

Выходной формат          : Пользовательский кодировщик
Выбранный битрейт        : 128 kBit/s
Качество                 : Высокий
Добавление ID3-тега      : Нет
Утилита сжатия           : C:\Program Files (x86)\Exact Audio Copy\Flac\flac.exe
Дополнительные параметры : -V -8 -T "Date=%year%" -T "Genre=%genre%" %source%

TOC извлечённого CD

     Трек |   Старт  | Длительность | Начальный сектор | Конечный сектор
    ---------------------------------------------------------------------
       1  |  0:00.00 |    4:10.62   |           0      |      18811     
       2  |  4:10.62 |    3:29.19   |       18812      |      34505     
       3  |  7:40.06 |    3:39.17   |       34506      |      50947     
       4  | 11:19.23 |    3:01.35   |       50948      |      64557     
       5  | 14:20.58 |    3:34.11   |       64558      |      80618     
       6  | 17:54.69 |    3:28.50   |       80619      |      96268     
       7  | 21:23.44 |    3:05.68   |       96269      |     110211     
       8  | 24:29.37 |    3:43.67   |      110212      |     127003     
       9  | 28:13.29 |    3:30.12   |      127004      |     142765     
      10  | 31:43.41 |    3:52.52   |      142766      |     160217     
      11  | 35:36.18 |    3:22.05   |      160218      |     175372     
      12  | 38:58.23 |    3:26.44   |      175373      |     190866     
      13  | 42:24.67 |    4:08.62   |      190867      |     209528     
      14  | 46:33.54 |    3:36.06   |      209529      |     225734     

Характеристики диапазона извлечения и сообщения об ошибках

Выбранный диапазон

     Имя файла J:\Трэкер\Маликов\Маликов Дмитрий - 25+.wav

     Пиковый уровень 97.4 %
     Скорость извлечения 1.9 X
     Качество диапазона 100.0 %
     CRC теста 57A60F49
     CRC копии 57A60F49
     Копирование... OK

Ошибок не произошло

 
AccurateRip: сводка
 
Трек  1  отсутствует в базе данных
Трек  2  отсутствует в базе данных
Трек  3  отсутствует в базе данных
Трек  4  отсутствует в базе данных
Трек  5  отсутствует в базе данных
Трек  6  отсутствует в базе данных
Трек  7  отсутствует в базе данных
Трек  8  отсутствует в базе данных
Трек  9  отсутствует в базе данных
Трек 10  отсутствует в базе данных
Трек 11  отсутствует в базе данных
Трек 12  отсутствует в базе данных
Трек 13  отсутствует в базе данных
Трек 14  отсутствует в базе данных
 
Ни одного трека нет в базе AccurateRip

Конец отчёта

==== Контрольная сумма отчёта 099F3FF72543F367B850BD5CA90A87AA62908EFEC26EECA97FE8771472D3E45C ====

Код:

REM GENRE Pop
REM DATE 2013
REM DISCID C40BC10E
REM COMMENT "ExactAudioCopy v1.0b4"
PERFORMER "Маликов Дмитрий"
TITLE "25+"
FILE "Маликов Дмитрий - 25+.flac" WAVE
  TRACK 01 AUDIO
    TITLE "Я так скучаю по тебе"
    PERFORMER "Маликов Дмитрий"
    INDEX 01 00:00:00
  TRACK 02 AUDIO
    TITLE "Лети (Песня выпускнице)"
    PERFORMER "Маликов Дмитрий"
    INDEX 01 04:10:62
  TRACK 03 AUDIO
    TITLE "Моя душа"
    PERFORMER "Маликов Дмитрий"
    INDEX 01 07:40:06
  TRACK 04 AUDIO
    TITLE "Нам по пути"
    PERFORMER "Маликов Дмитрий"
    INDEX 01 11:19:23
  TRACK 05 AUDIO
    TITLE "Больше не моя"
    PERFORMER "Маликов Дмитрий"
    INDEX 01 14:20:58
  TRACK 06 AUDIO
    TITLE "Ждать новой весны"
    PERFORMER "Маликов Дмитрий"
    INDEX 01 17:54:69
  TRACK 07 AUDIO
    TITLE "Робин Гуд"
    PERFORMER "Маликов Дмитрий"
    INDEX 01 21:23:44
  TRACK 08 AUDIO
    TITLE "Не убивай мечту"
    PERFORMER "Маликов Дмитрий"
    INDEX 01 24:29:37
  TRACK 09 AUDIO
    TITLE "Сильно любить"
    PERFORMER "Маликов Дмитрий"
    INDEX 01 28:13:29
  TRACK 10 AUDIO
    TITLE "Тебе одной"
    PERFORMER "Маликов Дмитрий"
    INDEX 01 31:43:41
  TRACK 11 AUDIO
    TITLE "Два пистолета"
    PERFORMER "Маликов Дмитрий"
    INDEX 01 35:36:18
  TRACK 12 AUDIO
    TITLE "Прости, любимая, прости"
    PERFORMER "Маликов Дмитрий"
    INDEX 01 38:58:23
  TRACK 13 AUDIO
    TITLE "Мой отец feat. В. Пресняков"
    PERFORMER "Маликов Дмитрий"
    INDEX 01 42:24:67
  TRACK 14 AUDIO
    TITLE "Однажды"
    PERFORMER "Маликов Дмитрий"
    INDEX 01 46:33:54

Этот торрент недоступен для скачивания без регистрации, однако доступен по публичной magnet-ссылке (источники с публичных трекеров). Перед использованием ссылки прочтите, пожалуйста Пользовательское соглашение, а также как можно дольше оставайтесь на раздаче! Для того, чтобы скачать сам торрент-файл (который видит больше источников), а также для того, чтобы поблагодарить релизера, вам необходимо зарегистрироваться. Если регистрироваться лень - вы можете также попробовать скачать релиз по нашим партнерским ссылкам ниже. Кроме того, зарегистрированным пользователям не показывается всплывающая реклама при скачивании.

[underverse.su].t54161.torrent
Трекер: Зарегистрирован   [ 29.04.2015 08:18 ]  

Статус: проверено (by Бишеп at 29.04.2015 08:18)
Поблагодарили: пока никто не поблагодарил...
Тип торрента: публичный - доступные источники с открытых трекеров: 
Размер: 362 MB (занимает 0,08 DVDR, для записи нужно 1 болванка DVDR/RW)
 
 
Похожие темы
Форум Тема Автор Торрент Отв. Посл. сооб.
Архив (популярная музыка) (Pop) Дмитрий Маликов - Дискография (1993-2009) [MP3, VBR 320 kbps] Алексей 25
0 | 0

1 | 1981

0

16.06.2011 08:09


Яндекс.Метрика powered by Sphinx


В Н И М А Н И Е
Сайт не распространяет и не хранит электронные версии произведений, а лишь бесплатно и без коммерческой выгоды (не требуя взамен платы,
SMS и т.д.) предоставляет доступ к создаваемому пользователями каталогу ссылок на торрент-файлы, которые содержат только списки хеш-сумм.
Убедительная просьба с жалобами обращаться напрямую к пользователю, разместившему торрент файл.

Вверх