Loading...
Error

(Pop) 30.02 (30 февраля) - Звезды в лужах (2014) [FLAC (Image+.CUE), Lossless]

Статистика раздачи
Размер:  303 MB   |    Зарегистрирован:  3 года 1 месяц   |    Скачан:  13 раз

Полного источника не было: 20 дней

Сидов:  0  |  0 KB/s  ]   Личеров:  0  |  0 KB/s  ]

* - сиды/пиры с внешних источников

   
 
Автор Сообщение

Бишеп Пол:Муж

29-Апр-2015 08:02

30.02 (30 февраля) - Звезды в лужах

Жанр: Pop
Год выпуска: 2014
Источник: CD
Производитель диска: SBA Production - GL10828
Аудиокодек: FLAC
Тип рипа: Image+.CUE
Битрейт аудио: lossless
Продолжительность: 00:30:38


Треклист:
01. Когда я увижу море
02. Но ты
03. Звезды в лужах
04. Не считается
05. Мне так часто говорят
06. Асфальтными нитками
07. На кухне
08. Я верю
09. К лучшему
10. Примером

Код:

Exact Audio Copy V1.0 beta 3 from 29. August 2011

EAC extraction logfile from 25. December 2014, 16:55

30.02 / Звезды в лужах

Used drive  : SlimtypeDVD A  DS8A9SH   Adapter: 0  ID: 1

Read mode               : Secure
Utilize accurate stream : Yes
Defeat audio cache      : Yes
Make use of C2 pointers : No

Read offset correction                      : 6
Overread into Lead-In and Lead-Out          : No
Fill up missing offset samples with silence : Yes
Delete leading and trailing silent blocks   : No
Null samples used in CRC calculations       : Yes
Used interface                              : Native Win32 interface for Win NT & 2000

Used output format              : User Defined Encoder
Selected bitrate                : 128 kBit/s
Quality                         : High
Add ID3 tag                     : No
Command line compressor         : C:\Program Files (x86)\Exact Audio Copy\Flac\flac.exe
Additional command line options : -V -8 -T "Date=%year%" -T "Genre=%genre%" %source%

TOC of the extracted CD

     Track |   Start  |  Length  | Start sector | End sector
    ---------------------------------------------------------
        1  |  0:00.00 |  2:41.70 |         0    |    12144   
        2  |  2:41.70 |  3:28.36 |     12145    |    27780   
        3  |  6:10.31 |  3:10.27 |     27781    |    42057   
        4  |  9:20.58 |  2:45.34 |     42058    |    54466   
        5  | 12:06.17 |  3:01.20 |     54467    |    68061   
        6  | 15:07.37 |  3:17.10 |     68062    |    82846   
        7  | 18:24.47 |  2:59.34 |     82847    |    96305   
        8  | 21:24.06 |  3:12.35 |     96306    |   110740   
        9  | 24:36.41 |  2:58.05 |    110741    |   124095   
       10  | 27:34.46 |  3:03.70 |    124096    |   137890   

Range status and errors

Selected range

     Filename C:\Новая папка\30.02 - Звезды в лужах\30.02 - Звезды в лужах.wav

     Peak level 100.0 %
     Extraction speed 4.0 X
     Range quality 100.0 %
     Test CRC EC1A6459
     Copy CRC EC1A6459
     Copy OK

No errors occurred

End of status report

==== Log checksum 722628E81F5E2AD4ED3B71F8F9C54C5E4BD76DAA40FEC1E8472C2ECA0657FF81 ====

Код:

REM GENRE Pop
REM DATE 2014
REM DISCID 87072E0A
REM COMMENT "ExactAudioCopy v1.0b3"
PERFORMER "30.02"
TITLE "Звезды в лужах"
FILE "30.02 - Звезды в лужах.flac" WAVE
  TRACK 01 AUDIO
    TITLE "Когда я увижу море"
    PERFORMER "30.02"
    INDEX 01 00:00:00
  TRACK 02 AUDIO
    TITLE "Но ты"
    PERFORMER "30.02"
    INDEX 00 02:39:70
    INDEX 01 02:41:70
  TRACK 03 AUDIO
    TITLE "Звезды в лужах"
    PERFORMER "30.02"
    INDEX 00 06:08:31
    INDEX 01 06:10:31
  TRACK 04 AUDIO
    TITLE "Не считается"
    PERFORMER "30.02"
    INDEX 00 09:18:58
    INDEX 01 09:20:58
  TRACK 05 AUDIO
    TITLE "Мне так часто говорят"
    PERFORMER "30.02"
    INDEX 00 12:04:17
    INDEX 01 12:06:17
  TRACK 06 AUDIO
    TITLE "Асфальтными нитками"
    PERFORMER "30.02"
    INDEX 00 15:05:37
    INDEX 01 15:07:37
  TRACK 07 AUDIO
    TITLE "На кухне"
    PERFORMER "30.02"
    INDEX 00 18:22:47
    INDEX 01 18:24:47
  TRACK 08 AUDIO
    TITLE "Я верю"
    PERFORMER "30.02"
    INDEX 00 21:22:06
    INDEX 01 21:24:06
  TRACK 09 AUDIO
    TITLE "К лучшему"
    PERFORMER "30.02"
    INDEX 00 24:34:41
    INDEX 01 24:36:41
  TRACK 10 AUDIO
    TITLE "Примером"
    PERFORMER "30.02"
    INDEX 00 27:32:46
    INDEX 01 27:34:46

Этот торрент недоступен для скачивания без регистрации, однако доступен по публичной magnet-ссылке (источники с публичных трекеров). Перед использованием ссылки прочтите, пожалуйста Пользовательское соглашение, а также как можно дольше оставайтесь на раздаче! Для того, чтобы скачать сам торрент-файл (который видит больше источников), а также для того, чтобы поблагодарить релизера, вам необходимо зарегистрироваться. Если регистрироваться лень - вы можете также попробовать скачать релиз по нашим партнерским ссылкам ниже. Кроме того, зарегистрированным пользователям не показывается всплывающая реклама при скачивании.

[underverse.su].t54160.torrent
Трекер: Зарегистрирован   [ 29.04.2015 08:02 ]  

Статус: проверено (by Бишеп at 29.04.2015 08:03)
Поблагодарили: пока никто не поблагодарил...
Тип торрента: публичный - доступные источники с открытых трекеров: 
Размер: 303 MB (занимает 0,07 DVDR, для записи нужно 1 болванка DVDR/RW)
 
 

Яндекс.Метрика powered by Sphinx


В Н И М А Н И Е
Сайт не распространяет и не хранит электронные версии произведений, а лишь бесплатно и без коммерческой выгоды (не требуя взамен платы,
SMS и т.д.) предоставляет доступ к создаваемому пользователями каталогу ссылок на торрент-файлы, которые содержат только списки хеш-сумм.
Убедительная просьба с жалобами обращаться напрямую к пользователю, разместившему торрент файл.

Вверх