Loading...
Error

Битва за Севастополь (Сергей Мокрицкий) [2015 г., Военный, Боевик, Мелодрама, Драма, DVDRip]

Статистика раздачи
Размер:  6,27 GB   |    Зарегистрирован:  1 год 7 месяцев   |    Скачан:  114 раз

Полного источника не было: 1 день 2 часа

Сидов:  0  |  0 KB/s  ]   Личеров:  0  |  0 KB/s  ]

* - сиды/пиры с внешних источников

   
 
Автор Сообщение

romeoexpert Пол:Муж

26-Апр-2015 19:19

Битва за Севастополь


Год выпуска: 2015
Жанр: Военный, Боевик, Мелодрама, Драма
Страна: Россия , Украина
Режиссер: Сергей Мокрицкий
В ролях: Юлия Пересильд, Евгений Цыганов,Олег Васильков, Никита Тарасов, Джоан Блэкэм,Полина Пахомова, Владимир Лилицкий, Анатолий Кот, Нателла Абелева-Таганова, Валерий Гришко.
Сюжет фильма:
Любовь под нескончаемым огнем противника, дружба с Элеонорой Рузвельт, выступление на конференции, повлиявшее на исход Второй мировой войны, желание жить и страх потерять любимого человека — справится ли со всем этим хрупкая женщина?

Это реальная история Людмилы Павличенко — легендарной женщины-снайпера. Солдаты шли в бой с ее именем на устах, а враги устроили на нее охоту. На поле битвы она видела смерть и страдания, но самым серьезным испытанием для нее стала любовь, которую у нее могла забрать война…

  • Дата мировой премьеры: 2 апреля 2015
  • Дата премьеры в РФ: 2 апреля 2015
  • Дата выхода DVD/Blu-ray релиза: 12 мая 2015, «Lizard Cinema Trade»


Качество видео: DVDRip

Продолжительность: 01:57:54
Формат: MKV
Видео: MPEG 2, 720x576@1024x576, 6257 kbps
Аудио #1: русский, оригинал, DTS 5.1, 754 kbps
Аудио #2: русский, оригинал, AC3 5.1, 448 kbps

Код:

General
Unique ID                   : 189143525858404868208230698934339968831 (0x8E4BB7D067DAC4BFBD64A6431B251F3F)
Complete name               : L:\Sevastopol.2015.DVDRip.mkv
Format                      : Matroska
Format version              : Version 2
File size                   : 6.27 GiB
Duration                    : 1h 57mn
Overall bit rate mode       : Variable
Overall bit rate            : 7 611 Kbps
Movie name                  : Sevastopol.2015.O.DVD.R.G. LIZARD.nnm-club.Title2
Encoded date                : UTC 2015-04-26 18:52:11
Writing application         : DVDFab
Writing library             : libebml v0.7.8 + libmatroska v0.8.1

Video
ID                          : 1
Format                      : MPEG Video
Format version              : Version 2
Format profile              : Main@Main
Format settings, BVOP       : Yes
Format settings, Matrix     : Custom
Format settings, GOP        : Variable
Codec ID                    : V_MPEG2
Codec ID/Info               : MPEG 1 or 2 Video
Duration                    : 1h 57mn
Bit rate mode               : Variable
Bit rate                    : 6 257 Kbps
Maximum bit rate            : 8 500 Kbps
Width                       : 720 pixels
Height                      : 576 pixels
Display aspect ratio        : 16:9
Frame rate mode             : Constant
Frame rate                  : 25.000 fps
Standard                    : PAL
Color space                 : YUV
Chroma subsampling          : 4:2:0
Bit depth                   : 8 bits
Scan type                   : Progressive
Compression mode            : Lossy
Bits/(Pixel*Frame)          : 0.603
Time code of first frame    : 00:00:00:00
Time code source            : Group of pictures header
Stream size                 : 5.15 GiB (82%)
Default                     : Yes
Forced                      : No

Audio #1
ID                          : 2
Format                      : DTS
Format/Info                 : Digital Theater Systems
Mode                        : 16
Format settings, Endianness : Big
Codec ID                    : A_DTS
Duration                    : 1h 57mn
Bit rate mode               : Constant
Bit rate                    : 755 Kbps
Channel(s)                  : 6 channels
Channel positions           : Front: L C R, Side: L R, LFE
Sampling rate               : 48.0 KHz
Bit depth                   : 24 bits
Compression mode            : Lossy
Stream size                 : 636 MiB (10%)
Language                    : Russian
Default                     : Yes
Forced                      : No

Audio #2
ID                          : 3
Format                      : AC-3
Format/Info                 : Audio Coding 3
Mode extension              : CM (complete main)
Format settings, Endianness : Big
Codec ID                    : A_AC3
Duration                    : 1h 57mn
Bit rate mode               : Constant
Bit rate                    : 448 Kbps
Channel(s)                  : 6 channels
Channel positions           : Front: L C R, Side: L R, LFE
Sampling rate               : 48.0 KHz
Bit depth                   : 16 bits
Compression mode            : Lossy
Stream size                 : 378 MiB (6%)
Language                    : Russian
Default                     : No
Forced                      : No

Menu
00:09:43.000                : en:(01)00:09:43:000
00:21:50.000                : en:(02)00:21:50:000
00:30:12.000                : en:(03)00:30:12:000
00:42:33.000                : en:(04)00:42:33:000
00:49:27.000                : en:(05)00:49:27:000
00:58:11.000                : en:(06)00:58:11:000
01:07:35.000                : en:(07)01:07:35:000
01:18:10.000                : en:(08)01:18:10:000
01:28:02.000                : en:(09)01:28:02:000
01:39:04.000                : en:(10)01:39:04:000
01:51:44.000                : en:(11)01:51:44:000
01:57:48.000                : en:(12)01:57:48:000
picpicpicpicpicpicpicpicpic
Для увеличения картинки щелкните мышкой по превью

Этот торрент недоступен для скачивания без регистрации, однако доступен по публичной magnet-ссылке (источники с публичных трекеров). Перед использованием ссылки прочтите, пожалуйста Пользовательское соглашение, а также как можно дольше оставайтесь на раздаче! Для того, чтобы скачать сам торрент-файл (который видит больше источников), а также для того, чтобы поблагодарить релизера, вам необходимо зарегистрироваться. Если регистрироваться лень - вы можете также попробовать скачать релиз по нашим партнерским ссылкам ниже.

[underverse.su].t54089.torrent
Трекер: Зарегистрирован   [ 26.04.2015 19:19 ]  

Статус: проверено (by makkol at 02.08.2015 10:12)
Поблагодарили: 3 человека
Тип торрента: публичный - доступные источники с открытых трекеров: 
Размер: 6,27 GB (занимает 1,43 DVDR, для записи нужно 2 болванки DVDR/RW)
 
 
Похожие темы
Форум Тема Автор Торрент Отв. Посл. сооб.
Зарубежное кино [DVDRip, Low-Res HDRip, и т.д.] Битва за Скайарк / Battle for Skyark (Саймон Хунг) [2015 г., фантастика, боевик, приключения, семейный, HDRip] VO makkol
28 | 5

0 | 922

44

11.06.2015 14:14

Наше кино [DVDRip, Low-Res HDRip, и т.д.] Битва за Севастополь (Сергей Мокрицкий) [2015 г., Военный, Боевик, Мелодрама, Драма, DVDRip] romeoexpert
110 | 5

1 | 6221

226

16.05.2015 23:12

Наше кино [DVDRip, Low-Res HDRip, и т.д.] Битва за Севастополь (Сергей Мокрицкий) [2015 г., военный, боевик, мелодрама, драма, DVDRip] 90ytr90
25 | 0

1 | 2261

199

02.05.2015 20:06

Зарубежное кино [HDDVDRip / BDRip / WEB-DL / HDTV 1080/720р] Битва за Скайарк / Battle for Skyark (Саймон Хунг) [2015 г., фантастика, боевик, приключения, семейный, BDRip 720p] VO + Original makkol
0 | 0

0 | 754

13

11.06.2015 14:28

Зарубежное кино [HDDVDRip / BDRip / WEB-DL / HDTV 1080/720р] Битва за Скайарк / Battle for Skyark (Саймон Хунг) [2015 г., боевик, фантастика, приключения, семейный, BDRip 1080p] VO + Original makkol
8 | 0

0 | 750

19

11.06.2015 17:04

Наше кино [DVD / HDDVD / BD / Remux] Битва за Севастополь (Сергей Мокрицкий) [2015 г., Военный, Боевик, Мелодрама, Драма, DVD-9] romeoexpert
1 | 0

0 | 17944

33

26.04.2015 18:41

Паукан Пол:Муж

27-Апр-2015 07:10

DVDRip на 6 с лишним гиг?
Что-то не чисто в датском королевстве...

romeoexpert Пол:Муж

27-Апр-2015 08:05

Паукан
DVDRip на 6 с лишним гиг. потому, что сделан из DVD-9. и все оставлено как в первоисточнике.

Яндекс.Метрика powered by Sphinx


В Н И М А Н И Е
Сайт не распространяет и не хранит электронные версии произведений, а лишь бесплатно и без коммерческой выгоды (не требуя взамен платы,
SMS и т.д.) предоставляет доступ к создаваемому пользователями каталогу ссылок на торрент-файлы, которые содержат только списки хеш-сумм.
Убедительная просьба с жалобами обращаться напрямую к пользователю, разместившему торрент файл.

Вверх