Loading...
Error

Президент [2015 г., документальный, SatRip]

 
Автор Сообщение

Becks Пол:Муж

26-Апр-2015 17:03

Президент


Год выпуска: 2015
Жанр: документальный
Страна: Россия
Сюжет фильма:
Фильм-интервью приурочен к 15-летию пребывания у власти Владимира Путина.

Картина охватывает период с августа 1999 года до сегодняшних дней и повествует о пути, который страна вместе с Президентом прошла за последние 15 лет.
Владимир Путин вспоминает о самых драматических моментах современной российской истории – войне в Чечне, гибели экипажа подводной лодки "Курск", теракте на Дубровке, Крыме…
Рассказ самого Президента, интервью с представителями политических и бизнес-элит страны, документальная хроника, уникальная съемка личных операторов Владимира Путина воссоздают и раскрывают подробности минувшего времени, повествуя о том, как менялось отношение к России и ее лидеру в стране и мире.
Экономические кризисы 2008 и 2014 года, Олимпиада в Сочи, формирование оппозиции, Болотная площадь и проспект Сахарова, Майдан…
Отвечая на вопросы Владимира Соловьева, Владимир Путин рассказывает о поворотных моментах большой политики, которые решали судьбу мира, и о том, куда Президент ведет Россию сегодня.
Качество видео: SatRip

Продолжительность: 2 часа 30 минут
Формат: AVI
Видео: XviD, 720x400 (1.80:1), ~1799 kbps
Аудио: русский, не требуется, AC3 5.1, 192 kbps

Код:

Формат                                   : AVI
Формат/Информация                        : Audio Video Interleave
Размер файла                             : 946 Мбайт
Продолжительность                        : 1 ч. 6 м.
Общий поток                              : 2002 Кбит/сек
Программа кодирования                    : VirtualDubMod 1.5.10.3 | www.virtualdub-fr.org || (build 2550/release)
Библиотека кодирования                   : VirtualDubMod build 2550/release

Видео
Идентификатор                            : 0
Формат                                   : MPEG-4 Visual
Профиль формата                          : Advanced Simple@L5
Параметр BVOP формата                    : 2
Параметр QPel формата                    : Нет
Параметр GMC формата                     : Без точки перехода
Параметр матрицы формата                 : Default (H.263)
Идентификатор кодека                     : XVID
Идентификатор кодека/Подсказка           : XviD
Продолжительность                        : 1 ч. 6 м.
Битрейт                                  : 1800 Кбит/сек
Ширина                                   : 720 пикселей
Высота                                   : 400 пикселей
Соотношение сторон                       : 16:9
Частота кадров                           : 25,000 кадров/сек
Цветовое пространство                    : YUV
Субдискретизация насыщенности            : 4:2:0
Битовая глубина                          : 8 бит
Тип развёртки                            : Прогрессивная
Метод сжатия                             : С потерями
Бит/(Пиксели*Кадры)                      : 0.250
Размер потока                            : 851 Мбайт (90%)
Библиотека кодирования                   : XviD 1.2.1 (UTC 2008-12-04)

Аудио
Идентификатор                            : 1
Формат                                   : AC-3
Формат/Информация                        : Audio Coding 3
Расширение режима                        : CM (complete main)
Параметр Endianness формата              : Big
Идентификатор кодека                     : 2000
Продолжительность                        : 1 ч. 6 м.
Вид битрейта                             : Постоянный
Битрейт                                  : 192 Кбит/сек
Каналы                                   : 2 канала
Расположение каналов                     : Front: L R
Частота                                  : 48,0 КГц
Битовая глубина                          : 16 бит
Метод сжатия                             : С потерями
Размер потока                            : 90,8 Мбайт (10%)
Выравнивание                             : Разделение по промежуткам
Продолжительность промежутка             : 40  мс. (1,00 видеокадр)
Время предзагрузки промежутка            : 500  мс.
picpicpicpic
Для увеличения картинки щелкните мышкой по превью
Похожие темы
Форум Тема Автор Торрент Отв. Посл. сооб.
Зарубежное кино [DVDRip, Low-Res HDRip, и т.д.] Президент Линкольн: Охотник на вампиров / Abraham Lincoln: Vampire Hunter (Тимур Бекмамбетов) [2012 г., ужасы, фэнтези, боевик, триллер, HDRip] Dub [лицензия] + Original eng 90ytr90
16 | 0

1 | 825

86

21.03.2013 23:59

Зарубежное кино [DVDRip, Low-Res HDRip, и т.д.] Президент Линкольн: Охотник на вампиров / Abraham Lincoln: Vampire Hunter (Тимур Бекмамбетов) [2012 г., ужасы, фэнтези, боевик, триллер, DVDRip] Dub [лицензия] 90ytr90
0 | 0

7 | 982

126

09.11.2012 15:57

Зарубежное кино [DVDRip, Low-Res HDRip, и т.д.] Президент Линкольн: Охотник на вампиров / Abraham Lincoln: Vampire Hunter (Тимур Бекмамбетов) [2012 г., ужасы, фэнтези, боевик, триллер, BDRip] Dub Garnett
1 | 0

0 | 839

47

22.10.2012 15:57

Аниме Президент школьного совета - горничная! / Президент - горничная! / Class President is a Maid! [1-26 из 26](Ямагути Такэси)[RUS(int), JAP+SUB][2010, комедия, романтика, школа, сёдзё, TVrip] Hitman
0 | 0

0 | 1360

0

04.03.2011 10:42

Зарубежное кино [DVD / HDDVD / BD / Remux] Президент Линкольн: Охотник на вампиров / Abraham Lincoln: Vampire Hunter (Тимур Бекмамбетов) [2012 г., ужасы, фэнтези, боевик, триллер, DVD-9] Dub DarkAngel
0 | 1

3 | 1462

9

25.02.2013 11:40

Зарубежное кино [DVD / HDDVD / BD / Remux] Президент Линкольн: Охотник на вампиров / Abraham Lincoln: Vampire Hunter (Тимур Бекмамбетов) [2012 г., ужасы, фэнтези, боевик, триллер, DVD-5 (сжатый)] Dub DarkAngel
0 | 0

3 | 571

7

03.11.2012 12:49

Архив Президент и его внучка (Тигран Кеосаян) [2000 г., Комедия, мелодрама, DVDRip] IZU
0 | 0

2 | 5127

5

17.02.2011 14:46

27-Апр-2015 05:42

Топик был перенесен из форума Документальные фильмы HQ в форум Личности


Паукан
 

Яндекс.Метрика powered by Sphinx


В Н И М А Н И Е
Сайт не распространяет и не хранит электронные версии произведений, а лишь бесплатно и без коммерческой выгоды (не требуя взамен платы,
SMS и т.д.) предоставляет доступ к создаваемому пользователями каталогу ссылок на торрент-файлы, которые содержат только списки хеш-сумм.
Убедительная просьба с жалобами обращаться напрямую к пользователю, разместившему торрент файл.

Вверх