Loading...
Error

Заговорённый (1-8 серии из 8) (Юрий Суходольский) [2015 г., боевик, SatRip]

Статистика раздачи
Размер:  4,28 GB   |    Зарегистрирован:  1 год 6 месяцев   |    Скачан:  44 раза
Сидов:  2  |  104 KB/s  ]   Личеров:  0  |  0 KB/s  ]

* - сиды/пиры с внешних источников

   
 
Автор Сообщение

nemos Пол:Муж

26-Апр-2015 16:57

Заговорённый


Год выпуска: 2015
премьера (РФ) 25 апреля 2015

Жанр: боевик
Страна: Россия
Режиссер: Юрий Суходольский
В ролях: Сергей Губанов, Игорь Филиппов, Максим Щёголев, Надежда Борисова, Мариэтта Цигаль-Полищук, Александр Лучинин, Анна Соловейчик, Александр Воробьёв (II), Симон Добравец, Виктор Супрун, Александра Каллас
Сюжет фильма:
Капитан разведки ВДВ Андрей Шиков по кличке Шик уволился из рядов Вооруженных Сил и открыл мастерскую по ремонту электронной техники. Шиков воевал в Чечне, на Балканах, и друзья часто называли его «заговоренный» за способность выходить из самых жестоких переделок без единой царапины. Но однажды Шик понял, что эта неуязвимость имеет обратную сторону — его пули прилетают другим. Одновременно с ним увольняется из разведки ВДВ и его боевой товарищ, старший лейтенант Георгий Солдатов по кличке "Густав". Пройдя через иностранный легион и получив французский паспорт на имя Жан-Пьера Жиранда, Солдатов создаёт частную военную корпорацию. Бывшим друзьям предстоит вступить в жестокое столкновение, которое разворачивается на территории России, Болгарии, Сербии и Ливии.


Качество видео: SatRip

Продолжительность: 00:41:02 серия
Формат: AVI
Видео: XviD, 720x416, 1 672 kbps
Аудио: русский, AC3 2.0, 192 kbps

Код:

E:\Фильмы-1\Zagovorionyj.2015.SATRip.Files-x\04.Zagovorionyj.2015.SATRip.Files-x.avi
   General
      Complete name : E:\Фильмы-1\Zagovorionyj.2015.SATRip.Files-x\04.Zagovorionyj.2015.SATRip.Files-x.avi
      Format : AVI
      Format/Info : Audio Video Interleave
      File size : 550 MiB
      Duration : 41mn 2s
      Overall bit rate : 1 874 Kbps
      Writing application : VirtualDubMod 1.5.10.2 (build 2542/release)
      Writing library : VirtualDubMod build 2542/release
   Video #0
      ID : 0
      Format : MPEG-4 Visual
      Format profile : Advanced Simple@L5
      Format settings, BVOP : 1
      Format settings, QPel : No
      Format settings, GMC : No warppoints
      Format settings, Matrix : Custom
      Codec ID : XVID
      Codec ID/Hint : XviD
      Duration : 41mn 2s
      Bit rate : 1 672 Kbps
      Width : 720 pixels
      Height : 416 pixels
      Display aspect ratio : 1.731
      Frame rate : 25.000 fps
      Color space : YUV
      Chroma subsampling : 4:2:0
      Bit depth : 8 bits
      Scan type : Progressive
      Compression mode : Lossy
      Bits/(Pixel*Frame) : 0.223
      Stream size : 491 MiB (89%)
      Writing library : XviD 73
   Audio #1
      ID : 1
      Format : AC-3
      Format/Info : Audio Coding 3
      Mode extension : CM (complete main)
      Format settings, Endianness : Big
      Codec ID : 2000
      Duration : 41mn 2s
      Bit rate mode : Constant
      Bit rate : 192 Kbps
      Channel(s) : 2 channels
      Channel positions : Front: L R
      Sampling rate : 48.0 KHz
      Bit depth : 16 bits
      Compression mode : Lossy
      Stream size : 56.4 MiB (10%)
      Alignment : Split accross interleaves
      Interleave, duration : 40 ms (1.00 video frame)
      Interleave, preload duration : 500 ms
picpicpicpicpicpicpicpicpicpicpicpicpicpic
Для увеличения картинки щелкните мышкой по превью

Этот торрент недоступен для скачивания без регистрации, однако доступен по публичной magnet-ссылке (источники с публичных трекеров). Перед использованием ссылки прочтите, пожалуйста Пользовательское соглашение, а также как можно дольше оставайтесь на раздаче! Для того, чтобы скачать сам торрент-файл (который видит больше источников), а также для того, чтобы поблагодарить релизера, вам необходимо зарегистрироваться. Если регистрироваться лень - вы можете также попробовать скачать релиз по нашим партнерским ссылкам ниже.

[underverse.su].t55144.torrent
Трекер: Зарегистрирован   [ 09.06.2015 20:19 ]  

Статус: проверено (by nemos at 09.06.2015 20:19)
Поблагодарили: 6 человек
Тип торрента: публичный - доступные источники с открытых трекеров: 
Размер: 4,28 GB (занимает 0,98 DVDR, для записи нужно 1 болванка DVDR/RW)
 
 


Последний раз редактировалось: nemos (14.06.2015 15:46), всего редактировалось 7 раз(а)

nemos Пол:Муж

26-Апр-2015 16:58

Мультитрекерная раздача. Добавлены все серии.

val.s.g Пол:Муж

13-Июн-2015 07:02

Спасибо за ВДВ. Просто берет гордость за наших.

Яндекс.Метрика powered by Sphinx


В Н И М А Н И Е
Сайт не распространяет и не хранит электронные версии произведений, а лишь бесплатно и без коммерческой выгоды (не требуя взамен платы,
SMS и т.д.) предоставляет доступ к создаваемому пользователями каталогу ссылок на торрент-файлы, которые содержат только списки хеш-сумм.
Убедительная просьба с жалобами обращаться напрямую к пользователю, разместившему торрент файл.

Вверх