Loading...
Error

Битва за Севастополь (Сергей Мокрицкий) [2015 г., Военный, Боевик, Мелодрама, Драма, DVDRip]

Статистика раздачи
Размер:  2,05 GB   |    Зарегистрирован:  1 год 7 месяцев   |    Скачан:  226 раз

Полного источника не было: 6 часов

Сидов:  0  |  0 KB/s  ]   Личеров:  0  |  0 KB/s  ]

* - сиды/пиры с внешних источников

   
 
Автор Сообщение

romeoexpert Пол:Муж

25-Апр-2015 19:35

Битва за Севастополь


Год выпуска: 2015
Жанр: Военный, Боевик, Мелодрама, Драма
Страна: Россия , Украина
Режиссер: Сергей Мокрицкий
В ролях: Юлия Пересильд, Евгений Цыганов,Олег Васильков, Никита Тарасов, Джоан Блэкэм,Полина Пахомова, Владимир Лилицкий, Анатолий Кот, Нателла Абелева-Таганова, Валерий Гришко.
Сюжет фильма:
Любовь под нескончаемым огнем противника, дружба с Элеонорой Рузвельт, выступление на конференции, повлиявшее на исход Второй мировой войны, желание жить и страх потерять любимого человека — справится ли со всем этим хрупкая женщина?

Это реальная история Людмилы Павличенко — легендарной женщины-снайпера. Солдаты шли в бой с ее именем на устах, а враги устроили на нее охоту. На поле битвы она видела смерть и страдания, но самым серьезным испытанием для нее стала любовь, которую у нее могла забрать война…

  • Мировая премьера: 2 апреля 2015
  • Российская премьера: 2 апреля 2015


Качество видео: DVDRip

Продолжительность: 01:57:54
Формат: AVI
Видео: XviD, 720x304, 2035 kbps
Аудио: русский, оригинал, AC3 5.1, 448 kbps

Код:

General
Complete name               : L:\B1tva.z4.Sev4st0pol.2015.O.DVDRip.2100MB.avi
Format                      : AVI
Format/Info                 : Audio Video Interleave
File size                   : 2.05 GiB
Duration                    : 1h 57mn
Overall bit rate            : 2 492 Kbps
Writing application         : VirtualDubMod 1.5.10.2 (build 2540/release)
Writing library             : VirtualDubMod build 2540/release

Video
ID                          : 0
Format                      : MPEG-4 Visual
Format profile              : Advanced Simple@L5
Format settings, BVOP       : 2
Format settings, QPel       : No
Format settings, GMC        : No warppoints
Format settings, Matrix     : Default (MPEG)
Codec ID                    : XVID
Codec ID/Hint               : XviD
Duration                    : 1h 57mn
Bit rate                    : 2 035 Kbps
Width                       : 720 pixels
Height                      : 304 pixels
Display aspect ratio        : 2.35:1
Frame rate                  : 25.000 fps
Color space                 : YUV
Chroma subsampling          : 4:2:0
Bit depth                   : 8 bits
Scan type                   : Progressive
Compression mode            : Lossy
Bits/(Pixel*Frame)          : 0.372
Stream size                 : 1.68 GiB (82%)
Writing library             : XviD 1.2.1 (UTC 2008-12-04)

Audio
ID                          : 1
Format                      : AC-3
Format/Info                 : Audio Coding 3
Mode extension              : CM (complete main)
Format settings, Endianness : Big
Codec ID                    : 2000
Duration                    : 1h 57mn
Bit rate mode               : Constant
Bit rate                    : 448 Kbps
Channel(s)                  : 6 channels
Channel positions           : Front: L C R, Side: L R, LFE
Sampling rate               : 48.0 KHz
Bit depth                   : 16 bits
Compression mode            : Lossy
Stream size                 : 378 MiB (18%)
Alignment                   : Split accross interleaves
Interleave, duration        : 40 ms (1.00 video frame)
Interleave, preload duratio : 500 ms
picpicpicpicpic
Для увеличения картинки щелкните мышкой по превью

Этот торрент недоступен для скачивания без регистрации, однако доступен по публичной magnet-ссылке (источники с публичных трекеров). Перед использованием ссылки прочтите, пожалуйста Пользовательское соглашение, а также как можно дольше оставайтесь на раздаче! Для того, чтобы скачать сам торрент-файл (который видит больше источников), а также для того, чтобы поблагодарить релизера, вам необходимо зарегистрироваться. Если регистрироваться лень - вы можете также попробовать скачать релиз по нашим партнерским ссылкам ниже.

[underverse.su].t54051.torrent
Трекер: Зарегистрирован   [ 25.04.2015 19:35 ]  

Статус: проверено (by Ведьмочка at 25.04.2015 22:04)
Поблагодарили: 6 человек
Тип торрента: публичный - доступные источники с открытых трекеров: 
Размер: 2,05 GB (занимает 0,47 DVDR, для записи нужно 1 болванка DVDR/RW)
 
 
Похожие темы
Форум Тема Автор Торрент Отв. Посл. сооб.
Зарубежное кино [DVDRip, Low-Res HDRip, и т.д.] Битва за Скайарк / Battle for Skyark (Саймон Хунг) [2015 г., фантастика, боевик, приключения, семейный, HDRip] VO makkol
28 | 5

0 | 922

44

11.06.2015 14:14

Наше кино [DVDRip, Low-Res HDRip, и т.д.] Битва за Севастополь (Сергей Мокрицкий) [2015 г., Военный, Боевик, Мелодрама, Драма, DVDRip] romeoexpert
0 | 0

2 | 20764

114

27.04.2015 08:05

Наше кино [DVDRip, Low-Res HDRip, и т.д.] Битва за Севастополь (Сергей Мокрицкий) [2015 г., военный, боевик, мелодрама, драма, DVDRip] 90ytr90
25 | 0

1 | 2261

199

02.05.2015 20:06

Зарубежное кино [HDDVDRip / BDRip / WEB-DL / HDTV 1080/720р] Битва за Скайарк / Battle for Skyark (Саймон Хунг) [2015 г., фантастика, боевик, приключения, семейный, BDRip 720p] VO + Original makkol
0 | 0

0 | 754

13

11.06.2015 14:28

Зарубежное кино [HDDVDRip / BDRip / WEB-DL / HDTV 1080/720р] Битва за Скайарк / Battle for Skyark (Саймон Хунг) [2015 г., боевик, фантастика, приключения, семейный, BDRip 1080p] VO + Original makkol
8 | 0

0 | 750

19

11.06.2015 17:04

Наше кино [DVD / HDDVD / BD / Remux] Битва за Севастополь (Сергей Мокрицкий) [2015 г., Военный, Боевик, Мелодрама, Драма, DVD-9] romeoexpert
1 | 0

0 | 17964

33

26.04.2015 18:41

Doctor Old 

16-Май-2015 23:12

А какого хера после 01.15 без всякого перехода начинается какой-то лабиринт с луками, стрелами и пауками?

Яндекс.Метрика powered by Sphinx


В Н И М А Н И Е
Сайт не распространяет и не хранит электронные версии произведений, а лишь бесплатно и без коммерческой выгоды (не требуя взамен платы,
SMS и т.д.) предоставляет доступ к создаваемому пользователями каталогу ссылок на торрент-файлы, которые содержат только списки хеш-сумм.
Убедительная просьба с жалобами обращаться напрямую к пользователю, разместившему торрент файл.

Вверх