Loading...
Error

Король и шут / The King and the Clown / Wang-ui namja (Ли Чон Ик) [2005 г., триллер, драма, история, HDRip] VO + VO (В. Кошкин)

Статистика раздачи
Размер:  2,19 GB   |    Зарегистрирован:  1 год 7 месяцев   |    Скачан:  9 раз

Полного источника не было: 4 месяца 5 дней

Сидов:  0  |  0 KB/s  ]   Личеров:  0  |  0 KB/s  ]

* - сиды/пиры с внешних источников

   
 
Автор Сообщение

ultarasbarcelona Пол:Муж

25-Апр-2015 07:17

Король и шут / The King and the Clown / Wang-ui namja


Год выпуска: 2005
Жанр: триллер, драма, история
Страна: Корея Южная
Режиссер: Ли Чон Ик
В ролях: Кам У Сон, Чон Джин Ён, Кан Сон Ён, Ли Чжун Ги, Чан Хан Сон, Чон Сок Ён, Ли Сын Хун...
Сюжет фильма:
Два клоуна, живущие во времена династии Чосон, арестованы за то, что показывали сатирическое представление, которое высмеивало короля. Их привозят в королевский дворец, над ними нависает угроза казни, но им дается шанс спастись, если они смогут рассмешить короля.

  • Мировая премьера: 29 декабря 2005

Качество видео: HDRip

Продолжительность: 02:00:58
Формат: AVI
Видео: MPEG-4 AVC, 720 x 400, 1931 kbps
Аудио #1: русский, одноголосый закадровый [любительский], AC3 2.0, 192 kbps
Аудио #2: русский, одноголосый закадровый [любительский], AC3 5.1, 448 kbps

Релиз группы:

picpicpic
Для увеличения картинки щелкните мышкой по превью

Этот торрент недоступен для скачивания без регистрации, однако доступен по публичной magnet-ссылке (источники с публичных трекеров). Перед использованием ссылки прочтите, пожалуйста Пользовательское соглашение, а также как можно дольше оставайтесь на раздаче! Для того, чтобы скачать сам торрент-файл (который видит больше источников), а также для того, чтобы поблагодарить релизера, вам необходимо зарегистрироваться. Если регистрироваться лень - вы можете также попробовать скачать релиз по нашим партнерским ссылкам ниже.

[underverse.su].t54043.torrent
Трекер: Зарегистрирован   [ 25.04.2015 07:17 ]  

Статус: ? недооформлено (by Ведьмочка at 25.04.2015 22:28)
Поблагодарили: пока никто не поблагодарил...
Тип торрента: публичный - доступные источники с открытых трекеров: 
Размер: 2,19 GB (занимает 1/2 DVDR, для записи нужно 1 болванка DVDR/RW)
 
 
Похожие темы
Форум Тема Автор Торрент Отв. Посл. сооб.
Музыкальное Видео Король и шут - Нашествие 2013 [2013 г., Punk Rock, WEBRip] Jimmy
0 | 0

2 | 623

7

21.07.2013 17:41

Ведьмочка Пол:Жен

25-Апр-2015 22:30

Технические данные не верны.
1. Звуковые дорожки. Первая - оригинал, корейский; Вторая - одноголосный, закадровый (Кошкин)
2. Присутствуют отдельные (внешние) субтитры в формате SRT. Почему не указали?

В соответствии с вышеуказанной информацией, исправьте и шапку.

Вот MI к данному фильму, добавьте пожалуйста в тему:


General
Complete name : \The King and the Clown.2005.HDRip.XviD.2200MB. rip by [Asssassin's Creed]\The King and the Clown.2005.HDRip.XviD.2200MB. rip by [Asssassin's Creed].avi
Format : AVI
Format/Info : Audio Video Interleave
Format profile : OpenDML
File size : 2.19 GiB
Duration : 2h 0mn
Overall bit rate : 2 589 Kbps
Writing application : VirtualDubMod 1.5.10.3 | www.virtualdub-fr.org || (build 2550/release)
Writing library : VirtualDubMod build 2550/release

Video
ID : 0
Format : MPEG-4 Visual
Format profile : Advanced Simple@L5
Format settings, BVOP : 1
Format settings, QPel : No
Format settings, GMC : No warppoints
Format settings, Matrix : Default (MPEG)
Codec ID : XVID
Codec ID/Hint : XviD
Duration : 2h 0mn
Bit rate : 1 931 Kbps
Width : 720 pixels
Height : 400 pixels
Display aspect ratio : 16:9
Frame rate : 23.976 fps
Color space : YUV
Chroma subsampling : 4:2:0
Bit depth : 8 bits
Scan type : Progressive
Compression mode : Lossy
Bits/(Pixel*Frame) : 0.280
Stream size : 1.63 GiB (75%)
Writing library : XviD 1.2.1 (UTC 2008-12-04)

Audio #1
ID : 1
Format : AC-3
Format/Info : Audio Coding 3
Mode extension : CM (complete main)
Format settings, Endianness : Big
Codec ID : 2000
Duration : 2h 0mn
Bit rate mode : Constant
Bit rate : 192 Kbps
Channel(s) : 2 channels
Channel positions : Front: L R
Sampling rate : 48.0 KHz
Bit depth : 16 bits
Compression mode : Lossy
Stream size : 166 MiB (7%)
Alignment : Split accross interleaves
Interleave, duration : 42 ms (1.00 video frame)
Interleave, preload duratio : 500 ms

Audio #2
ID : 2
Format : AC-3
Format/Info : Audio Coding 3
Mode extension : CM (complete main)
Format settings, Endianness : Big
Codec ID : 2000
Duration : 2h 0mn
Bit rate mode : Constant
Bit rate : 448 Kbps
Channel(s) : 6 channels
Channel positions : Front: L C R, Side: L R, LFE
Sampling rate : 48.0 KHz
Bit depth : 16 bits
Compression mode : Lossy
Stream size : 388 MiB (17%)
Alignment : Split accross interleaves
Interleave, duration : 42 ms (1.00 video frame)
Interleave, preload duratio : 500 ms
3. Кодек видео - XviD

Яндекс.Метрика powered by Sphinx


В Н И М А Н И Е
Сайт не распространяет и не хранит электронные версии произведений, а лишь бесплатно и без коммерческой выгоды (не требуя взамен платы,
SMS и т.д.) предоставляет доступ к создаваемому пользователями каталогу ссылок на торрент-файлы, которые содержат только списки хеш-сумм.
Убедительная просьба с жалобами обращаться напрямую к пользователю, разместившему торрент файл.

Вверх