Loading...
Error

Чужое (1-4 серии из 4) (Андрей Щербинин) [2015 г., боевик, SatRip]

Статистика раздачи
Размер:  2,15 GB   |    Зарегистрирован:  1 год 7 месяцев   |    Скачан:  50 раз

Полного источника не было: 23 дня

Сидов:  0  |  0 KB/s  ]   Личеров:  0  |  0 KB/s  ]

* - сиды/пиры с внешних источников

   
 
Автор Сообщение

nemos Пол:Муж

24-Апр-2015 16:45

Чужое


Год выпуска: 24 апреля 2015
Жанр: боевик
Страна: Россия
Режиссер: Андрей Щербинин
В ролях: Константин Лавроненко, Светлана Антонова, Валентина Теличкина, Александр Михайлов, Алла Мещерякова, Людмила Аринина, Сергей Перегудов, Виталий Гумеров, Григорий Зельцер, Александр Петров (III), Марина Иванова (III) и др.
Сюжет фильма:
Главная героиня фильма – молодая преподавательница музыки, которая после смерти своей знакомой должна выполнить ее последнюю просьбу: вернуть старинные бриллианты, которые та хранила со времен Великой Отечественной войны, их законным владелицам. На пути у героини встают бандиты, узнавшие о ее намерении вернуть бриллианты, они пытаются ей помешать и завладеть драгоценностями. Но с помощью старинного приятеля отца девушки, который ей всячески помогает, героиня уверенно идет к своей цели.


Качество видео: SatRip

Продолжительность: 00:41:39 серия
Формат: AVI
Видео: XviD, 720x400, 1 645 kbps
Аудио: русский, AC3 2.0, 192 kbps

Код:

E:\Фильмы-1\Chuzhoe.2015.SATRip.Files-x\04.Chuzhoe.2015.SATRip.Files-x.avi
   General
      Complete name : E:\Фильмы-1\Chuzhoe.2015.SATRip.Files-x\04.Chuzhoe.2015.SATRip.Files-x.avi
      Format : AVI
      Format/Info : Audio Video Interleave
      File size : 550 MiB
      Duration : 41mn 39s
      Overall bit rate : 1 847 Kbps
      Writing application : VirtualDubMod 1.5.10.3 | www.virtualdub-fr.org || (build 2550/release)
      Writing library : VirtualDubMod build 2550/release
   Video #0
      ID : 0
      Format : MPEG-4 Visual
      Format profile : Advanced Simple@L5
      Format settings, BVOP : 1
      Format settings, QPel : No
      Format settings, GMC : No warppoints
      Format settings, Matrix : Custom
      Codec ID : XVID
      Codec ID/Hint : XviD
      Duration : 41mn 39s
      Bit rate : 1 645 Kbps
      Width : 720 pixels
      Height : 400 pixels
      Display aspect ratio : 16:9
      Frame rate : 25.000 fps
      Color space : YUV
      Chroma subsampling : 4:2:0
      Bit depth : 8 bits
      Scan type : Progressive
      Compression mode : Lossy
      Bits/(Pixel*Frame) : 0.228
      Stream size : 490 MiB (89%)
      Writing library : XviD 73
   Audio #1
      ID : 1
      Format : AC-3
      Format/Info : Audio Coding 3
      Mode extension : CM (complete main)
      Format settings, Endianness : Big
      Codec ID : 2000
      Duration : 41mn 39s
      Bit rate mode : Constant
      Bit rate : 192 Kbps
      Channel(s) : 2 channels
      Channel positions : Front: L R
      Sampling rate : 48.0 KHz
      Bit depth : 16 bits
      Compression mode : Lossy
      Stream size : 57.2 MiB (10%)
      Alignment : Split accross interleaves
      Interleave, duration : 40 ms (1.00 video frame)
      Interleave, preload duration : 500 ms
picpicpicpicpicpicpicpicpicpicpicpicpicpicpic
Для увеличения картинки щелкните мышкой по превью

Этот торрент недоступен для скачивания без регистрации, однако доступен по публичной magnet-ссылке (источники с публичных трекеров). Перед использованием ссылки прочтите, пожалуйста Пользовательское соглашение, а также как можно дольше оставайтесь на раздаче! Для того, чтобы скачать сам торрент-файл (который видит больше источников), а также для того, чтобы поблагодарить релизера, вам необходимо зарегистрироваться. Если регистрироваться лень - вы можете также попробовать скачать релиз по нашим партнерским ссылкам ниже.

[underverse.su].t54038.torrent
Трекер: Зарегистрирован   [ 24.04.2015 16:45 ]  

Статус: проверено (by nemos at 24.04.2015 16:47)
Поблагодарили: 2 человека
Тип торрента: публичный - доступные источники с открытых трекеров: 
Размер: 2,15 GB (занимает 0,49 DVDR, для записи нужно 1 болванка DVDR/RW)
 
 

Яндекс.Метрика powered by Sphinx


В Н И М А Н И Е
Сайт не распространяет и не хранит электронные версии произведений, а лишь бесплатно и без коммерческой выгоды (не требуя взамен платы,
SMS и т.д.) предоставляет доступ к создаваемому пользователями каталогу ссылок на торрент-файлы, которые содержат только списки хеш-сумм.
Убедительная просьба с жалобами обращаться напрямую к пользователю, разместившему торрент файл.

Вверх