Loading...
Error

Несломленный / Unbroken (Анджелина Джоли) [2014 г., драма, военный, биография, спорт., BDRip] Dub + Original + Sub (Rus,Eng) HQ Underverse

Статистика раздачи
Размер:  2,17 GB   |    Зарегистрирован:  1 год 7 месяцев   |    Скачан:  32 раза

Полного источника не было: 3 часа

Сидов:  0  |  0 KB/s  ]   Личеров:  0  |  0 KB/s  ]

* - сиды/пиры с внешних источников

   
 
Автор Сообщение

HQ Underverse 

24-Апр-2015 16:26

Несломленный / Unbroken


Год выпуска: 2014
Жанр: драма, военный, биография, спорт.
Страна: США
Режиссер: Анджелина Джоли
В ролях: Джек О'Коннелл, Донал Глисон, Такамаса Исихара, Гаррет Хедлунд, Финн Уиттрок, Мэттью Крокер, Джай Кортни, Маддалена Искьяле, Винченцо Амато, Джон Магаро
Сюжет фильма:
Фильм рассказывает реальную историю американца-легкоатлета Луи Замперини, принявшего участие в Олимпийских играх 1936 года в Берлине. Он не одержал победы в финальном забеге, но снискал расположение Гитлера, который пригласил его к себе в ложу. Предполагалось, что Замперини примет участие и в следующих Олимпийских играх, но из-за начала Второй мировой войны он был вынужден отправиться на фронт. Его самолет потерпел крушение над Тихим океаном, после чего Замперини вместе с двумя сослуживцами провёл 47 дней в дрейфе на плоту, и попал в плен к японцам, где подвергся издевательствам и пыткам. Домой он вернулся уже лишь после окончания войны.

  • Мировая премьера: 17 ноября 2014
  • Российская премьера: 15 января 2015, «UPI»

/
Качество видео: BDRip

Продолжительность: 02:17:28
Формат: avi
Видео: XviD, 720x304, 1803 kbps
Аудио #1: русский, дублированный [лицензия], AC3 5.1, 448 kbps
Аудио #2: английский, оригинал, AC3 5.1, 448 kbps (отдельным файлом: здесь)
Субтитры #1: внешние, SRT, английский
Субтитры #2: внешние, SRT, русский
Субтитры #3: внешние, SRT, русский (FORCED)

Код:

General
Complete name                    : Y:\Несломленный\Unbroken.2014.BDRip.XviD.AC3.Rus.D.HQ.Underverse.avi
Format                           : AVI
Format/Info                      : Audio Video Interleave
Format profile                   : OpenDML
File size                        : 2.17 GiB
Duration                         : 2h 17mn
Overall bit rate                 : 2 263 Kbps
Writing application              : VirtualDubMod 1.5.10.3 | www.virtualdub-fr.org || (build 2550/release)
Writing library                  : VirtualDubMod build 2550/release

Video
ID                               : 0
Format                           : MPEG-4 Visual
Format profile                   : Streaming Video@L1
Format settings, BVOP            : Yes
Format settings, QPel            : No
Format settings, GMC             : No warppoints
Format settings, Matrix          : Custom
Codec ID                         : XVID
Codec ID/Hint                    : XviD
Duration                         : 2h 17mn
Bit rate                         : 1 804 Kbps
Width                            : 720 pixels
Height                           : 304 pixels
Display aspect ratio             : 2.35
Frame rate                       : 23.976 fps
Resolution                       : 24 bits
Colorimetry                      : 4:2:0
Scan type                        : Progressive
Bits/(Pixel*Frame)               : 0.344
Stream size                      : 1.73 GiB (80%)
Writing library                  : XviD 66

Audio
ID                               : 1
Format                           : AC-3
Format/Info                      : Audio Coding 3
Codec ID                         : 2000
Duration                         : 2h 17mn
Bit rate mode                    : Constant
Bit rate                         : 448 Kbps
Channel(s)                       : 6 channels
Channel positions                : Front: L C R, Surround: L R, LFE
Sampling rate                    : 48.0 KHz
Stream size                      : 440 MiB (20%)
Alignment                        : Split accross interleaves
Interleave, duration             : 42 ms (1.00 video frame)
Interleave, preload duration     : 500 ms

General
Complete name                    : Y:\Несломленный\Unbroken.2014.BDRip.XviD.AC3.Rus.D.HQ.Underverse.ENG.ac3
Format                           : AC-3
Format/Info                      : Audio Coding 3
File size                        : 441 MiB
Duration                         : 2h 17mn
Overall bit rate                 : 448 Kbps

Audio
Format                           : AC-3
Format/Info                      : Audio Coding 3
Duration                         : 2h 17mn
Bit rate mode                    : Constant
Bit rate                         : 448 Kbps
Channel(s)                       : 6 channels
Channel positions                : Front: L C R, Surround: L R, LFE
Sampling rate                    : 48.0 KHz
Stream size                      : 441 MiB (100%)

Релиз группы:

picpicpic
Для увеличения картинки щелкните мышкой по превью

Этот торрент недоступен для скачивания без регистрации, однако доступен по публичной magnet-ссылке (источники с публичных трекеров). Перед использованием ссылки прочтите, пожалуйста Пользовательское соглашение, а также как можно дольше оставайтесь на раздаче! Для того, чтобы скачать сам торрент-файл (который видит больше источников), а также для того, чтобы поблагодарить релизера, вам необходимо зарегистрироваться. Если регистрироваться лень - вы можете также попробовать скачать релиз по нашим партнерским ссылкам ниже.

[underverse.su].t54036.torrent
Трекер: Зарегистрирован   [ 24.04.2015 16:26 ]  

Статус: проверено (by HQ Underverse at 24.04.2015 16:27)
Поблагодарили: 2 человека
Тип торрента: публичный - доступные источники с открытых трекеров: 
Размер: 2,17 GB (занимает 1/2 DVDR, для записи нужно 1 болванка DVDR/RW)
 
 
Похожие темы
Форум Тема Автор Торрент Отв. Посл. сооб.
T Зарубежное кино [DVDRip, Low-Res HDRip, и т.д.] Несломленный / Unbroken (Анджелина Джоли) [2014 г., драма, военный, биография, спорт, DVDScr] DVO (RAIM&GUGU) 90ytr90
258 | 6

0 | 779

35

14.01.2015 16:07

T Зарубежное кино [DVDRip, Low-Res HDRip, и т.д.] Несломленный / Unbroken (Анджелина Джоли / Angelina Jolie) [2014 г., драма, военный, биография, спорт, WEB-DLRip] Dub (чистый звук) 90ytr90
170 | 1

0 | 887

44

10.03.2015 13:53

T Зарубежное кино [DVDRip, Low-Res HDRip, и т.д.] Несломленный / Unbroken (Анджелина Джоли / Angelina Jolie) [2014 г., драма, военный, биография, спорт, WEB-DLRip] Dub (чистый звук) 90ytr90
40 | 0

0 | 775

23

10.03.2015 16:20

T Зарубежное кино [DVDRip, Low-Res HDRip, и т.д.] Несломленный / Unbroken (Анджелина Джоли / Angelina Jolie) [2014 г., драма, военный, биография, спорт, HDRip] Dub [iTunes] Паукан
17 | 1

0 | 535

23

31.03.2015 14:14

T Зарубежное кино [HDDVDRip / BDRip / WEB-DL / HDTV 1080/720р] Несломленный / Unbroken (Анджелина Джоли / Angelina Jolie) [2014 г., драма, военный, биография, спорт, WEB-DL 720p] Dub (чистый звук) + Spa + Original (Eng) + Sub (Eng) 90ytr90
0 | 0

0 | 1045

53

10.03.2015 16:37

T Зарубежное кино [HDDVDRip / BDRip / WEB-DL / HDTV 1080/720р] Несломленный / Unbroken (Анджелина Джоли / Angelina Jolie) [2014 г., драма, военный, биография, спорт, BDRip 1080p] Dub [iTunes] + Original + Sub (Eng) Паукан
1 | 0

0 | 587

13

31.03.2015 14:17

Зарубежное кино [HDDVDRip / BDRip / WEB-DL / HDTV 1080/720р] Несломленный / Unbroken (Анджелина Джоли) [2014 г., Драма, военный, биография, спорт., BDRip 720p] Dub + Original+ Sub (Rus,Eng) romeoexpert
1 | 0

0 | 665

2

23.04.2015 22:59

Зарубежное кино [HDDVDRip / BDRip / WEB-DL / HDTV 1080/720р] Несломленный / Unbroken (Анджелина Джоли) [2014 г., драма, военный, биография, спорт, BDRip 1080p] Dub + Subs ultarasbarcelona
31 | 0

0 | 564

10

10.05.2015 14:03

T Новинки кино [CAMRip, TS, DVDScr, WP, TC] Несломленный / Unbroken (Анджелина Джоли) [2014 г., драма, военный, биография, спорт, DVDScr] DVO (RAIM&GUGU) 90ytr90
4 | 0

0 | 1072

68

14.01.2015 16:16

T Новинки кино [CAMRip, TS, DVDScr, WP, TC] Несломленный / Unbroken (Анджелина Джоли) [2014 г., драма, военный, биография, спорт, DVDScr] Dub [Звук с TS] Паукан
0 | 0

0 | 1154

28

23.01.2015 14:26


Яндекс.Метрика powered by Sphinx


В Н И М А Н И Е
Сайт не распространяет и не хранит электронные версии произведений, а лишь бесплатно и без коммерческой выгоды (не требуя взамен платы,
SMS и т.д.) предоставляет доступ к создаваемому пользователями каталогу ссылок на торрент-файлы, которые содержат только списки хеш-сумм.
Убедительная просьба с жалобами обращаться напрямую к пользователю, разместившему торрент файл.

Вверх