Loading...
Error

Последний моcкаль / Останній моcкаль (серии: 1-16 из 16) (Семен Горов) [2015 г., комедия, мелодрама, SatRip]

Статистика раздачи
Размер:  5,25 GB   |    Зарегистрирован:  1 год 7 месяцев   |    Скачан:  54 раза

Полного источника не было: 15 дней

Сидов:  0  |  0 KB/s  ]   Личеров:  0  |  0 KB/s  ]

* - сиды/пиры с внешних источников

   
 
Автор Сообщение

nemos Пол:Муж

23-Апр-2015 08:01

Последний моcкаль / Останній моcкаль


Год выпуска: 2015
Жанр: комедия, мелодрама
Страна: Украина
Режиссер: Семен Горов
В ролях: Игорь Скрипко, Юрий Горбунов, Владимир Горянский, Назар Заднепровский, Владимир Николаенко, Наталья Корецкая, Галина Безрук и др.
Сюжет фильма:
Отец главного героя Валеры вынужден бежать из Москвы — его преследует мафия и ФСБ. Сына он отправляет в Украину, в глухое село, к родному дяде… Московский мажор неожиданно попадает в разные перипетии…


Качество видео: SatRip

Продолжительность: 00:24:02 серия
Формат: AVI
Видео: XviD, 720x400, 1 892 kbps
Аудио: MP3 2.0, 192 kbps

Код:

Останній Москаль (2015)\Останній Москаль.(01.seriya).2015.XviD.SATRip.by.simka.avi
   General
      Complete name : \Останній Москаль (2015)\Останній Москаль.(01.seriya).2015.XviD.SATRip.by.simka.avi
      Format : AVI
      Format/Info : Audio Video Interleave
      File size : 300 MiB
      Duration : 20mn 2s
      Overall bit rate : 2 094 Kbps
      Writing application : VirtualDubMod 1.5.10.3 | www.virtualdub-fr.org || (build 2550/release)
      Writing library : VirtualDubMod build 2550/release
   Video #0
      ID : 0
      Format : MPEG-4 Visual
      Format profile : Advanced Simple@L5
      Format settings, BVOP : 1
      Format settings, QPel : No
      Format settings, GMC : No warppoints
      Format settings, Matrix : Default (MPEG)
      Codec ID : XVID
      Codec ID/Hint : XviD
      Duration : 20mn 2s
      Bit rate : 1 892 Kbps
      Width : 720 pixels
      Height : 400 pixels
      Display aspect ratio : 16:9
      Frame rate : 25.000 fps
      Color space : YUV
      Chroma subsampling : 4:2:0
      Bit depth : 8 bits
      Scan type : Progressive
      Compression mode : Lossy
      Bits/(Pixel*Frame) : 0.263
      Stream size : 271 MiB (90%)
      Writing library : XviD 1.2.1 (UTC 2008-12-04)
   Audio #1
      ID : 1
      Format : MPEG Audio
      Format version : Version 1
      Format profile : Layer 3
      Mode : Joint stereo
      Mode extension : MS Stereo
      Codec ID : 55
      Codec ID/Hint : MP3
      Duration : 20mn 2s
      Bit rate mode : Constant
      Bit rate : 192 Kbps
      Channel(s) : 2 channels
      Sampling rate : 48.0 KHz
      Compression mode : Lossy
      Stream size : 27.5 MiB (9%)
      Alignment : Aligned on interleaves
      Interleave, duration : 40 ms (1.00 video frame)
      Interleave, preload duration : 504 ms
      Writing library : LAME3.99r
      Encoding settings : -m j -V 4 -q 2 -lowpass 18.6 -b 192
picpicpicpicpicpicpic
Для увеличения картинки щелкните мышкой по превью

Этот торрент недоступен для скачивания без регистрации, однако доступен по публичной magnet-ссылке (источники с публичных трекеров). Перед использованием ссылки прочтите, пожалуйста Пользовательское соглашение, а также как можно дольше оставайтесь на раздаче! Для того, чтобы скачать сам торрент-файл (который видит больше источников), а также для того, чтобы поблагодарить релизера, вам необходимо зарегистрироваться. Если регистрироваться лень - вы можете также попробовать скачать релиз по нашим партнерским ссылкам ниже.

[underverse.su].t54030.torrent
Трекер: Зарегистрирован   [ 24.04.2015 15:29 ]  

Статус: проверено (by nemos at 24.04.2015 15:29)
Поблагодарили: 6 человек
Тип торрента: публичный - доступные источники с открытых трекеров: 
Размер: 5,25 GB (занимает 1,2 DVDR, для записи нужно 2 болванки DVDR/RW)
 
 
Похожие темы
Форум Тема Автор Торрент Отв. Посл. сооб.
Зарубежное кино [DVDRip, Low-Res HDRip, и т.д.] Последний король Шотландии / The Last King of Scotland (Кевин МакДональд) [2006 г., драма, исторический, DVDRip] km170682tvv
0 | 0

1 | 1419

14

22.07.2009 08:58

Зарубежное кино [DVDRip, Low-Res HDRip, и т.д.] Последний император / The Last Emperor (Бернардо Бертолуччи) [1987 г., биография, исторический, драма, DVDRip] km170682tvv
0 | 0

1 | 1451

3

30.07.2009 17:47

Зарубежное кино [DVDRip, Low-Res HDRip, и т.д.] Последний самурай / The Last Samurai (Эдвард Цвик) [2003 г., боевик, драма, приключения, военный, BDRip] Dub + Sub (Rus) NMZ
23 | 1

6 | 2716

15

18.11.2013 14:39

Зарубежное кино [DVDRip, Low-Res HDRip, и т.д.] Последний дракон: В поисках магической жемчужины / The Dragon Pearl (Марио Андриччион) [2011 г., детектив, приключения, семейный, DVDRip] LAMA
0 | 0

0 | 887

5

19.07.2011 09:25

Зарубежное кино [DVDRip, Low-Res HDRip, и т.д.] Последний охотник на ведьм / The Last Witch Hunter (Брек Эйснер / Breck Eisner) [2015 г., фэнтези, боевик, приключения, BDRip] Dub + Original (Eng) 90ytr90
138 | 4

0 | 258

12

17.11.2016 11:18

Зарубежное кино [DVDRip, Low-Res HDRip, и т.д.] Последний в обойме / One in the Gun (Рольф Канефски) [2010 г., триллер, DVDRip] DVO DarkAngel
4 | 0

1 | 782

29

12.01.2016 19:52

Зарубежное кино [DVDRip, Low-Res HDRip, и т.д.] Последний час Земли / Earth's Final Hours (Дэвид Хоган) [2011 г., фантастика, HDRip] MVO 90ytr90
3 | 0

1 | 1304

41

12.12.2012 18:01

T Зарубежное кино [DVDRip, Low-Res HDRip, и т.д.] Последний звездолёт / The Last Starship (Свен Кнюппель) [2016 г., фантастика, DVDRip] MVO (Синема УС) 90ytr90
254 | 13

0 | 499

22

13.11.2016 16:25

Зарубежное кино [DVDRip, Low-Res HDRip, и т.д.] Последний дом слева / The Last House on the Left [Unrated] (Дэннис Илиадис) [2009 г., ужасы, триллер, драма, BDRip] Dub + Original garry
0 | 1

0 | 619

13

20.12.2012 22:28

Зарубежное кино [DVDRip, Low-Res HDRip, и т.д.] Последний магнат / Da Shang Hai (Цзин Вон) [2012 г., драма, мелодрама, приключения, военный, HDRip] DVO 90ytr90
3 | 0

0 | 1122

25

16.03.2013 18:20


Яндекс.Метрика powered by Sphinx


В Н И М А Н И Е
Сайт не распространяет и не хранит электронные версии произведений, а лишь бесплатно и без коммерческой выгоды (не требуя взамен платы,
SMS и т.д.) предоставляет доступ к создаваемому пользователями каталогу ссылок на торрент-файлы, которые содержат только списки хеш-сумм.
Убедительная просьба с жалобами обращаться напрямую к пользователю, разместившему торрент файл.

Вверх