Loading...
Error

Лесник (Cезон: 3 / 1-48 серия из 48) (Виктор Конисевич, Сергей Артимович) [2015 г., криминальный, детектив, SatRip]

Статистика раздачи
Размер:  29,08 GB   |    Зарегистрирован:  1 год 6 месяцев   |    Скачан:  14 раз

Полного источника не было: 1 месяц 28 дней

Сидов:  0  |  0 KB/s  ]   Личеров:  0  |  0 KB/s  ]

* - сиды/пиры с внешних источников

   
 
Автор Сообщение

nemos Пол:Муж

22-Апр-2015 14:20

Лесник (2015) SATRip (3 сезон)

Производство: Россия / "Мостелефильм"
Жанр: детектив

Режиссер: Виктор Конисевич, Сергей Артимович
Актеры:Олег Штефанко, Анна Большова, Александр Цуркан, Алексей Булдаков, Михаил Васьков, Владимир Тимофеев, Наталья Санько, Михаил Солодко, Вера Пересветова, Юлия Куварзина

Описание:
Продолжение сериала о бывшем спецназовце Леониде Зубове, который работает лесником в тайге. В новом сезоне отношения между полюбившимися героями сериала будут развиваться захватывающе. Сивый (Алексей Булдаков) наконец обретет личное счастье: он женится на местной библиотекарше Марии Миловановой (Ирина Аверина). А вот Зубову придется нелегко: он потеряет свою возлюбленную Елену, и его жизнь начнет катиться под откос. Единственная цель, которую будет преследовать Зубов, – это найти убийц любимой женщины и отомстить им. Удастся ли ему это сделать и не превратиться в злодея...

Дата российской премьеры: 20 апреля 2015

Качество видео: SATRip
Продолжительность: ~00:44:00 серия

Видеокодек: XviD
Битрейт видео: ~1800 kbps
Размер кадра: 720x400 (1.80:1)
Аудиокодек: AC3, 2 ch
Битрейт аудио: 192 kbps

Код:

Общее
Полное имя                               : D:\Лесник 3\Lesnik.3.01.SATRip.avi
Формат                                   : AVI
Формат/Информация                        : Audio Video Interleave
Размер файла                             : 633 Мбайт
Продолжительность                        : 44 м.
Общий поток                              : 2002 Кбит/сек
Программа кодирования                    : VirtualDubMod 1.5.10.3 | [url=http://www.virtualdub-fr.org]www.virtualdub-fr.org[/url] || (build 2550/release)
Библиотека кодирования                   : VirtualDubMod build 2550/release

Видео
Идентификатор                            : 0
Формат                                   : MPEG-4 Visual
Профиль формата                          : Advanced Simple@L5
Параметр BVOP формата                    : 2
Параметр QPel формата                    : Нет
Параметр GMC формата                     : Без точки перехода
Параметр матрицы формата                 : Default (H.263)
Идентификатор кодека                     : XVID
Идентификатор кодека/Подсказка           : XviD
Продолжительность                        : 44 м.
Битрейт                                  : 1800 Кбит/сек
Ширина                                   : 720 пикселей
Высота                                   : 400 пикселей
Соотношение сторон                       : 16:9
Частота кадров                           : 25,000 кадров/сек
Цветовое пространство                    : YUV
Субдискретизация насыщенности            : 4:2:0
Битовая глубина                          : 8 бит
Тип развёртки                            : Прогрессивная
Метод сжатия                             : С потерями
Бит/(Пиксели*Кадры)                      : 0.250
Размер потока                            : 569 Мбайт (90%)
Библиотека кодирования                   : XviD 1.2.1 (UTC 2008-12-04)

Аудио
Идентификатор                            : 1
Формат                                   : AC-3
Формат/Информация                        : Audio Coding 3
Расширение режима                        : CM (complete main)
Параметр Endianness формата              : Big
Идентификатор кодека                     : 2000
Продолжительность                        : 44 м.
Вид битрейта                             : Постоянный
Битрейт                                  : 192 Кбит/сек
Каналы                                   : 2 канала
Расположение каналов                     : Front: L R
Частота                                  : 48,0 КГц
Битовая глубина                          : 16 бит
Метод сжатия                             : С потерями
Размер потока                            : 60,7 Мбайт (10%)
Выравнивание                             : Разделение по промежуткам
Продолжительность промежутка             : 40  мс. (1,00 видеокадр)
Время предзагрузки промежутка            : 500  мс.
Внимание! Раздача ведётся путём добавления новых серий; при каждом добавлении создаётся новый торрент.
Чтобы начать докачку новой серии, пользователям необходимо сделать следующее:
1. Остановить скачивание;
2. Удалить старый торрент у себя из клиента (старые серии удалять не надо);
3. Скачать новый торрент и запустить его у себя в клиенте вместо старого, при этом указать клиенту путь в старую папку куда и должно происходить скачивание новых серий. Ваш клиент при этом должен произвести хеширование (проверку) старой папки и будет докачивать только те серии, которых у вас ещё нет. Старые серии при этом не удаляются, а продолжают раздаваться! Eсли вы уже удалили старые серии, то предотвратить повторную закачку старых серий можно, отжав галочку в соответствующих местах при запуске нового торрента.
Скриншоты:
pic picpic

Этот торрент недоступен для скачивания без регистрации, однако доступен по публичной magnet-ссылке (источники с публичных трекеров). Перед использованием ссылки прочтите, пожалуйста Пользовательское соглашение, а также как можно дольше оставайтесь на раздаче! Для того, чтобы скачать сам торрент-файл (который видит больше источников), а также для того, чтобы поблагодарить релизера, вам необходимо зарегистрироваться. Если регистрироваться лень - вы можете также попробовать скачать релиз по нашим партнерским ссылкам ниже.

[underverse.su].t54573.torrent
Трекер: Зарегистрирован   [ 14.05.2015 14:51 ]  

Статус: проверено (by nemos at 14.05.2015 14:51)
Поблагодарили: 3 человека
Тип торрента: публичный - доступные источники с открытых трекеров: 
Размер: 29,08 GB (занимает 6,64 DVDR, для записи нужно 7 болванок DVDR/RW)
 
 


Последний раз редактировалось: nemos (14.05.2015 14:51), всего редактировалось 13 раз(а)

nemos Пол:Муж

28-Апр-2015 16:54

Раздача обновлена! Добавлена серия: 48


Последний раз редактировалось: nemos (12.05.2015 03:45), всего редактировалось 2 раз(а)

Яндекс.Метрика powered by Sphinx


В Н И М А Н И Е
Сайт не распространяет и не хранит электронные версии произведений, а лишь бесплатно и без коммерческой выгоды (не требуя взамен платы,
SMS и т.д.) предоставляет доступ к создаваемому пользователями каталогу ссылок на торрент-файлы, которые содержат только списки хеш-сумм.
Убедительная просьба с жалобами обращаться напрямую к пользователю, разместившему торрент файл.

Вверх