Loading...
Error

Седьмой сын / Seventh Son (Сергей Бодров) [2014 г., фэнтези, приключения, HDRip-AVC] Dub [Лицензия] + Original + Sub (Rus,Ukr,Eng)

Статистика раздачи
Размер:  2 GB   |    Зарегистрирован:  1 год 7 месяцев   |    Скачан:  43 раза
Сидов:  2  |  0 KB/s  ]   Личеров:  0  |  0 KB/s  ]

* - сиды/пиры с внешних источников

   
 
Автор Сообщение

Паукан Пол:Муж

22-Апр-2015 13:05

Седьмой сын / Seventh Son


Название: Седьмой сын
Оригинальное название: Seventh Son
Год выпуска: 2014
Жанр: фэнтези, приключения
Режиссёр: Сергей Бодров
В фильме снимались: Бен Барнс, Джефф Бриджес, Джулианна Мур, Алисия Викандер, Кит Харингтон, Джимон Хонсу, Оливия Уильямс, Антье Трауэ, Джейсон Скотт Ли, Дэвид Кабитт

Описание: Рассказ в фильме пойдет про парня, который, так уж вышло, стал седьмым сыном седьмого сына. А только такой человек может стать ведьмаком. Но этого недостаточно, чтобы именовать себя так — необходимо пройти массу тренировок, а также усердно учиться. Ведь главное оружие ведьмака — это его ум. Хоть в народе их не любят, но кто-то же обязан убивать нечисть, хранить землю от сил зла и делать всю грязную работу? Юный Том Уорд попробует стать тем самым учеником ведьмака.



Выпущено: Великобритания, США, Канада, Китай / Legendary Pictures, Moving Picture Company
Продолжительность: 01:41:59
Озвучивание: Дублированное [Лицензия]

Качество: HDRip-AVC
Видео: MPEG-4 AVC, 1910 Кбит/с, 1024x426, 23.976 кадр/с
Аудио: Русский, английский (АС3, 6 ch, 448 Кбит/с)
Продолжительность: 01:41:59
Субтитры: Русские, английские, украинские
General
Unique ID : 240386370657460845009392679795011208516 (0xB4D8BB1F5AAD9EA9AA2DAE9358C1C544)
Complete name : C:7.syn.2014.D.HDRip.AVC.ExKinoRay.mkv
Format : Matroska
Format version : Version 4 / Version 2
File size : 2.00 GiB
Duration : 1h 41mn
Overall bit rate : 2 808 Kbps
Movie name : 7 syn 2014 from ExKinoRay
Encoded date : UTC 2015-04-22 05:59:36
Writing application : mkvmerge v6.6.0 ('The Edge Of The In Between') built on Dec 1 2013 17:55:00
Writing library : libebml v1.3.0 + libmatroska v1.4.1

Video
ID : 1
Format : AVC
Format/Info : Advanced Video Codec
Format profile : High@L4.1
Format settings, CABAC : Yes
Format settings, ReFrames : 10 frames
Codec ID : V_MPEG4/ISO/AVC
Duration : 1h 41mn
Bit rate : 1 910 Kbps
Width : 1 024 pixels
Height : 426 pixels
Display aspect ratio : 2.40:1
Frame rate mode : Constant
Frame rate : 23.976 fps
Color space : YUV
Chroma subsampling : 4:2:0
Bit depth : 8 bits
Scan type : Progressive
Bits/(Pixel*Frame) : 0.183
Stream size : 1.32 GiB (66%)
Title : Enigma-Vladislav71
Writing library : x264 core 133 r2334 a3ac64b
Encoding settings : cabac=1 / ref=10 / deblock=1:-2:-2 / analyse=0x3:0x113 / me=umh / subme=10 / psy=1 / psy_rd=1.05:0.15 / mixed_ref=1 / me_range=32 / chroma_me=1 / trellis=2 / 8x8dct=1 / cqm=0 / deadzone=21,11 / fast_pskip=0 / chroma_qp_offset=-3 / threads=12 / lookahead_threads=2 / sliced_threads=0 / nr=0 / decimate=0 / interlaced=0 / bluray_compat=0 / constrained_intra=0 / bframes=9 / b_pyramid=2 / b_adapt=2 / b_bias=0 / direct=3 / weightb=1 / open_gop=0 / weightp=2 / keyint=240 / keyint_min=23 / scenecut=40 / intra_refresh=0 / rc=2pass / mbtree=0 / bitrate=1910 / ratetol=1.0 / qcomp=0.60 / qpmin=0 / qpmax=51 / qpstep=4 / cplxblur=20.0 / qblur=0.5 / ip_ratio=1.40 / pb_ratio=1.30 / aq=1:1.00
Language : English
Default : Yes
Forced : No
Color primaries : BT.709
Transfer characteristics : BT.709
Matrix coefficients : BT.709

Audio #1
ID : 2
Format : AC-3
Format/Info : Audio Coding 3
Mode extension : CM (complete main)
Format settings, Endianness : Big
Codec ID : A_AC3
Duration : 1h 41mn
Bit rate mode : Constant
Bit rate : 448 Kbps
Channel(s) : 6 channels
Channel positions : Front: L C R, Side: L R, LFE
Sampling rate : 48.0 KHz
Bit depth : 16 bits
Compression mode : Lossy
Stream size : 327 MiB (16%)
Title : DUB
Language : Russian
Default : Yes
Forced : No

Audio #2
ID : 3
Format : AC-3
Format/Info : Audio Coding 3
Mode extension : CM (complete main)
Format settings, Endianness : Big
Codec ID : A_AC3
Duration : 1h 41mn
Bit rate mode : Constant
Bit rate : 448 Kbps
Channel(s) : 6 channels
Channel positions : Front: L C R, Side: L R, LFE
Sampling rate : 48.0 KHz
Bit depth : 16 bits
Compression mode : Lossy
Stream size : 327 MiB (16%)
Language : English
Default : No
Forced : No

Text #1
ID : 4
Format : UTF-8
Codec ID : S_TEXT/UTF8
Codec ID/Info : UTF-8 Plain Text
Title : forced
Language : Russian
Default : Yes
Forced : Yes

Text #2
ID : 5
Format : UTF-8
Codec ID : S_TEXT/UTF8
Codec ID/Info : UTF-8 Plain Text
Title : Full
Language : Russian
Default : No
Forced : No

Text #3
ID : 6
Format : UTF-8
Codec ID : S_TEXT/UTF8
Codec ID/Info : UTF-8 Plain Text
Title : Full
Language : Ukrainian
Default : No
Forced : No

Text #4
ID : 7
Format : UTF-8
Codec ID : S_TEXT/UTF8
Codec ID/Info : UTF-8 Plain Text
Title : SDH
Language : English
Default : No
Forced : No

Menu
00:00:00.000 : en:00:00:00.000
00:04:50.415 : en:00:04:50.415
00:10:28.545 : en:00:10:28.545
00:16:40.583 : en:00:16:40.583
00:22:40.359 : en:00:22:40.359
00:27:40.450 : en:00:27:40.450
00:30:17.691 : en:00:30:17.691
00:36:45.203 : en:00:36:45.203
00:42:37.388 : en:00:42:37.388
00:49:54.742 : en:00:49:54.742
00:54:45.073 : en:00:54:45.073
00:57:48.548 : en:00:57:48.548
01:02:53.144 : en:01:02:53.144
01:06:53.968 : en:01:06:53.968
01:11:29.285 : en:01:11:29.285
01:18:36.921 : en:01:18:36.921
01:22:10.300 : en:01:22:10.300
01:25:32.669 : en:01:25:32.669
01:30:15.035 : en:01:30:15.035
01:33:21.095 : en:01:33:21.095
pic pic pic
Для увеличения картинки щелкните мышкой по превью

Этот торрент недоступен для скачивания без регистрации, однако доступен по публичной magnet-ссылке (источники с публичных трекеров). Перед использованием ссылки прочтите, пожалуйста Пользовательское соглашение, а также как можно дольше оставайтесь на раздаче! Для того, чтобы скачать сам торрент-файл (который видит больше источников), а также для того, чтобы поблагодарить релизера, вам необходимо зарегистрироваться. Если регистрироваться лень - вы можете также попробовать скачать релиз по нашим партнерским ссылкам ниже.

[underverse.su].t53926.torrent
Трекер: Зарегистрирован   [ 22.04.2015 13:05 ]  

Статус: проверено (by Паукан at 22.04.2015 13:06)
Поблагодарили: 1 человек
Тип торрента: публичный - доступные источники с открытых трекеров: 
Размер: 2 GB (занимает 0,46 DVDR, для записи нужно 1 болванка DVDR/RW)
 
 
Похожие темы
Форум Тема Автор Торрент Отв. Посл. сооб.
Зарубежное кино [DVDRip, Low-Res HDRip, и т.д.] Седьмой сын / Seventh Son (Сергей Бодров ст.) [2014 г., фэнтези, приключения, HDRip] Dub [лицензия] + Original Паукан
1 | 0

0 | 558

9

22.04.2015 12:59

Зарубежное кино [DVDRip, Low-Res HDRip, и т.д.] Седьмой сын / Seventh Son (Сергей Бодров ст.) [2014 г., фэнтези, приключения, HDRip] Dub [лицензия] Паукан
14 | 0

2 | 898

64

18.05.2015 17:59

Зарубежное кино HQ Седьмой сын / Seventh Son (Сергей Бодров) [2014 г., фэнтези, приключения, BDRip] Dub + Original + Sub (Rus,Ukr,Eng) HQ Underverse HQ Underverse
2 | 0

0 | 1072

36

30.04.2015 10:30

Зарубежное кино [HDDVDRip / BDRip / WEB-DL / HDTV 1080/720р] Седьмой сын / Seventh Son (Сергей Бодров ст.) [2014 г., фэнтези, приключения, BDRip 720p] Dub [лицензия] + Original + Sub (Rus,Eng,Ukr) Паукан
1 | 0

0 | 590

21

22.04.2015 12:47

Зарубежное кино [HDDVDRip / BDRip / WEB-DL / HDTV 1080/720р] Седьмой сын / Seventh Son (Сергей Бодров ст.) [2014 г., фэнтези, приключения, BDRip 1080p] Dub [лицензия] + Original + Sub (Rus,Ukr,Eng) Паукан
3 | 0

0 | 834

31

22.04.2015 12:55


Яндекс.Метрика powered by Sphinx


В Н И М А Н И Е
Сайт не распространяет и не хранит электронные версии произведений, а лишь бесплатно и без коммерческой выгоды (не требуя взамен платы,
SMS и т.д.) предоставляет доступ к создаваемому пользователями каталогу ссылок на торрент-файлы, которые содержат только списки хеш-сумм.
Убедительная просьба с жалобами обращаться напрямую к пользователю, разместившему торрент файл.

Вверх