Loading...
Error

Наводчица (1-4 серия из 4) (Ким Дружинин) [2015 г., детектив, SatRip]

Статистика раздачи
Размер:  2,14 GB   |    Зарегистрирован:  1 год 7 месяцев   |    Скачан:  50 раз

Полного источника не было: 3 месяца 24 дня

Сидов:  0  |  0 KB/s  ]   Личеров:  0  |  0 KB/s  ]

* - сиды/пиры с внешних источников

   
 
Автор Сообщение

nemos Пол:Муж

17-Апр-2015 16:39

Наводчица


Год выпуска: премьера (РФ) 17 апреля 2015
Жанр: детектив
Страна: Россия
Режиссер: Ким Дружинин
В ролях: Игорь Лифанов, Екатерина Новикова, Софья Карабулина, Олег Харитонов, Юлия Топольницкая, Алексей Ведерников (II), Ким Дружинин, Александр Куликов (III), Олег Малышев, Сергей Беспалов, Константин Фисенко, Сергей Бледных, Денис Пьянов, Андрей Павловец, Вадим Волков, Геннадий Морозов (II), Валентина Лебедева (II), Сергей Сидоренко (II), Максим Крупский, Гавриил Федотов
Сюжет фильма:
Бывший сотрудник полиции Игорь Калинин сменил профессию, но не убеждения. Он - охранник салона ювелирных украшений. Жизнь распорядилась так, что Игорю приходится одному воспитывать дочь-подростка. Но проблема отцов и детей коснулась и его. Однажды Игорь стал замечать у дочери Вики непозволительно дорогие вещи: мобильный телефон, украшения, одежду. Бывший полицейский заподозрил неладное. Дочь пыталась убедить отца, что все это ей подарили. Однако чутье Игоря не подводит. Оказалось, что Вика встречается с парнем, у которого проблемы с законом. Мало того, по Викиной наводке жених вместе с дружками совершает ограбления. Но однажды они ограбили очень серьезных людей. Теперь жизнь дочери зависит от Игоря...


Качество видео: SatRip

Продолжительность: 00:45:00 серия
Формат: AVI
Видео: XviD, 720x400, 1 532 kbps
Аудио: русский, AC3 2.0, 192 kbps

Код:

E:\Фильмы-1\Navodchitsa.2015.SATRip.Files-x\04.Navodchitsa.2015.SATRip.Files-x.avi
   General
      Complete name : E:\Фильмы-1\Navodchitsa.2015.SATRip.Files-x\04.Navodchitsa.2015.SATRip.Files-x.avi
      Format : AVI
      Format/Info : Audio Video Interleave
      File size : 550 MiB
      Duration : 44mn 21s
      Overall bit rate : 1 734 Kbps
      Writing application : VirtualDubMod 1.5.10.2 (build 2542/release)
      Writing library : VirtualDubMod build 2542/release
   Video #0
      ID : 0
      Format : MPEG-4 Visual
      Format profile : Advanced Simple@L5
      Format settings, BVOP : 1
      Format settings, QPel : No
      Format settings, GMC : No warppoints
      Format settings, Matrix : Custom
      Codec ID : XVID
      Codec ID/Hint : XviD
      Duration : 44mn 21s
      Bit rate : 1 532 Kbps
      Width : 720 pixels
      Height : 400 pixels
      Display aspect ratio : 16:9
      Frame rate : 25.000 fps
      Color space : YUV
      Chroma subsampling : 4:2:0
      Bit depth : 8 bits
      Scan type : Progressive
      Compression mode : Lossy
      Bits/(Pixel*Frame) : 0.213
      Stream size : 486 MiB (88%)
      Writing library : XviD 73
   Audio #1
      ID : 1
      Format : AC-3
      Format/Info : Audio Coding 3
      Mode extension : CM (complete main)
      Format settings, Endianness : Big
      Codec ID : 2000
      Duration : 44mn 21s
      Bit rate mode : Constant
      Bit rate : 192 Kbps
      Channel(s) : 2 channels
      Channel positions : Front: L R
      Sampling rate : 48.0 KHz
      Bit depth : 16 bits
      Compression mode : Lossy
      Stream size : 60.9 MiB (11%)
      Alignment : Split accross interleaves
      Interleave, duration : 40 ms (1.00 video frame)
      Interleave, preload duration : 500 ms
picpicpicpicpicpic
Для увеличения картинки щелкните мышкой по превью

Этот торрент недоступен для скачивания без регистрации, однако доступен по публичной magnet-ссылке (источники с публичных трекеров). Перед использованием ссылки прочтите, пожалуйста Пользовательское соглашение, а также как можно дольше оставайтесь на раздаче! Для того, чтобы скачать сам торрент-файл (который видит больше источников), а также для того, чтобы поблагодарить релизера, вам необходимо зарегистрироваться. Если регистрироваться лень - вы можете также попробовать скачать релиз по нашим партнерским ссылкам ниже.

[underverse.su].t53790.torrent
Трекер: Зарегистрирован   [ 17.04.2015 16:39 ]  

Статус: проверено (by nemos at 17.04.2015 16:59)
Поблагодарили: 4 человека
Тип торрента: публичный - доступные источники с открытых трекеров: 
Размер: 2,14 GB (занимает 0,49 DVDR, для записи нужно 1 болванка DVDR/RW)
 
 

Яндекс.Метрика powered by Sphinx


В Н И М А Н И Е
Сайт не распространяет и не хранит электронные версии произведений, а лишь бесплатно и без коммерческой выгоды (не требуя взамен платы,
SMS и т.д.) предоставляет доступ к создаваемому пользователями каталогу ссылок на торрент-файлы, которые содержат только списки хеш-сумм.
Убедительная просьба с жалобами обращаться напрямую к пользователю, разместившему торрент файл.

Вверх