Loading...
Error

Железная схватка / Robot Overlords (Джон Райт) [2014 г., фантастика, боевик, приключения, WEB-DLRip] DVO [Студия Пиратского дубляжа]

Статистика раздачи
Размер:  1,45 GB   |    Зарегистрирован:  1 год 7 месяцев   |    Скачан:  120 раз

Полного источника не было: 1 день 15 часов

Сидов:  0  |  0 KB/s  ]   Личеров:  0  |  0 KB/s  ]

* - сиды/пиры с внешних источников

   
 
Автор Сообщение

Паукан Пол:Муж

17-Апр-2015 13:03

Железная схватка / Robot Overlords


Название: Железная схватка
Оригинальное название: Robot Overlords
Год выпуска: 2014
Жанр: фантастика, боевик, приключения
Режиссёр: Джон Райт
В фильме снимались: Джиллиан Андерсон, Бен Кингсли, Каллэн МакОлифф, Тамер Хассан, Джеральдин Джеймс, Стивен Макинтош, Элла Хант, Мило Паркер, Рой Хадд, Крэйг Гарнер

Описание:
Роботы из далекой Галактики захватили Землю. Лондон разрушен, люди живут в постоянном страхе. Выжившим запрещено покидать свои дома. Каждому человеку вмонтирован чип, который в случае неповиновения может превратить его в горстку пепла. И лишь группа молодых друзей решается бросить вызов инопланетным захватчикам и уничтожить необъятный корабль, заслоняющий горизонт вот уже долгие годы.



Страна: Великобритания
Студия: British Film Company, British Film Institute (BFI), Northern Ireland Screen, Pinewood Studios Ltd., Tempo Productions Limited, Umbra Telegraph Pictures
Продолжительность: 01:29:49
Перевод: Любительское (двухголосое) [Студия Пиратского дубляжа]

Кодек: XviD
Качество: WEB-DLRip
Видео: 688x384 (1.79:1), 23.976 fps, XviD build 73 ~1922 kbps avg, 0.30 bit/pixel
Звук: 48 kHz, AC3 Dolby Digital, 2/0 (L,R) ch, ~384.00 kbps avg
Субтитры: нет

Семпл
General
Complete name : S:ФильмыЖелезная схватка. 2014. WEB-DLRip (AleksSin).avi
Format : AVI
Format/Info : Audio Video Interleave
File size : 1.45 GiB
Duration : 1h 29mn
Overall bit rate : 2 315 Kbps
Writing application : VirtualDubMod 1.5.10.3 | www.virtualdub-fr.org || (build 2550/release)
Writing library : VirtualDubMod build 2550/release

Video
ID : 0
Format : MPEG-4 Visual
Format profile : Advanced Simple@L5
Format settings, BVOP : Yes
Format settings, QPel : No
Format settings, GMC : No warppoints
Format settings, Matrix : Custom
Codec ID : XVID
Codec ID/Hint : XviD
Duration : 1h 29mn
Bit rate : 1 922 Kbps
Width : 688 pixels
Height : 384 pixels
Display aspect ratio : 16:9
Frame rate : 23.976 fps
Color space : YUV
Chroma subsampling : 4:2:0
Bit depth : 8 bits
Scan type : Progressive
Bits/(Pixel*Frame) : 0.303
Stream size : 1.21 GiB (83%)
Writing library : XviD 73

Audio
ID : 1
Format : AC-3
Format/Info : Audio Coding 3
Mode extension : CM (complete main)
Codec ID : 2000
Duration : 1h 29mn
Bit rate mode : Constant
Bit rate : 384 Kbps
Channel(s) : 2 channels
Channel positions : Front: L R
Sampling rate : 48.0 KHz
Bit depth : 16 bits
Stream size : 247 MiB (17%)
Alignment : Split accross interleaves
Interleave, duration : 42 ms (1.00 video frame)
Interleave, preload duration : 500 ms
pic pic pic
Для увеличения картинки щелкните мышкой по превью

Этот торрент недоступен для скачивания без регистрации, однако доступен по публичной magnet-ссылке (источники с публичных трекеров). Перед использованием ссылки прочтите, пожалуйста Пользовательское соглашение, а также как можно дольше оставайтесь на раздаче! Для того, чтобы скачать сам торрент-файл (который видит больше источников), а также для того, чтобы поблагодарить релизера, вам необходимо зарегистрироваться. Если регистрироваться лень - вы можете также попробовать скачать релиз по нашим партнерским ссылкам ниже.

[underverse.su].t53784.torrent
Трекер: Зарегистрирован   [ 17.04.2015 13:03 ]  

Статус: проверено (by Паукан at 17.04.2015 13:03)
Поблагодарили: 5 человек
Тип торрента: публичный - доступные источники с открытых трекеров: 
Размер: 1,45 GB (занимает 1/3 DVDR, для записи нужно 1 болванка DVDR/RW)
 
 
Похожие темы
Форум Тема Автор Торрент Отв. Посл. сооб.
Зарубежное кино [DVDRip, Low-Res HDRip, и т.д.] Железная схватка / Robot Overlords (Джон Райт) [2014 г., фантастика, боевик, приключения, HDRip] DVO makkol
50 | 0

0 | 700

28

11.08.2015 23:00

T Зарубежное кино [DVDRip, Low-Res HDRip, и т.д.] Железная схватка / Robot Overlords (Джон Райт) [2014 г., фантастика, боевик, приключения, HDRip] MVO makkol
28 | 1

0 | 681

43

01.10.2015 08:00

Зарубежное кино [HDDVDRip / BDRip / WEB-DL / HDTV 1080/720р] Железная схватка / Robot Overlords (Джон Райт) [2014 г., фантастика, боевик, приключения, BDRip 720p] DVO + Original + Subs (Eng) makkol
3 | 0

0 | 682

16

11.08.2015 23:25

T Зарубежное кино [HDDVDRip / BDRip / WEB-DL / HDTV 1080/720р] Железная схватка / Robot Overlords (Джон Райт) [2014 г., фантастика, боевик, приключения, BDRip 720p] MVO + Original makkol
9 | 0

0 | 455

22

01.10.2015 08:18

T Зарубежное кино [HDDVDRip / BDRip / WEB-DL / HDTV 1080/720р] Железная схватка / Robot Overlords (Джон Райт) [2014 г., фантастика, боевик, приключения, BDRip 1080p] MVO + Original + Subs makkol
3 | 0

0 | 679

24

01.10.2015 08:32

DrBond Пол:Муж

22-Апр-2015 17:23

Если полностью отключить логику и не задумываться над вопросами "как", "почему", "кто", "для чего" - фильм великолепный. Отличный сюжет, поглощает от начала до конца фильма. Я даже не припомню с каким из фильмов может переплетаться сюжетная линия. Пять из пяти! Рекомендую к просмотру.
:Yahoo!:

А если включить логику и посмотреть на реальный мир и всё, что происходит в Евразии, очень много совпадений.

=@

Яндекс.Метрика powered by Sphinx


В Н И М А Н И Е
Сайт не распространяет и не хранит электронные версии произведений, а лишь бесплатно и без коммерческой выгоды (не требуя взамен платы,
SMS и т.д.) предоставляет доступ к создаваемому пользователями каталогу ссылок на торрент-файлы, которые содержат только списки хеш-сумм.
Убедительная просьба с жалобами обращаться напрямую к пользователю, разместившему торрент файл.

Вверх