Loading...
Error

Кадр / The Frame (Джеймин Винанс) [2014 г., фантастика, драма, HDRip] DVO [DeadSno & den904] + Original

Статистика раздачи
Размер:  2,05 GB   |    Зарегистрирован:  1 год 7 месяцев   |    Скачан:  54 раза

Полного источника не было: 1 день 13 часов

Сидов:  0  |  0 KB/s  ]   Личеров:  0  |  0 KB/s  ]

* - сиды/пиры с внешних источников

   
 
Автор Сообщение

Паукан Пол:Муж

17-Апр-2015 12:48

Кадр / The Frame


Название: Кадр
Оригинальное название: The Frame
Год выхода: 2014
Жанр: фантастика, драма
Режиссер-постановщик: Джеймин Винанс
В главных ролях: Тифани Милам, Кэлвин Бартлетт, Крис Келли, Энтони Нуччио, Шона Эрп, Джордан Долл, Кент Рэнделл, Ивэн Лаи, Меган Хеффернан, Марти Линдси

Описание: Двое незнакомцев проживают свои жизни в разных вселенных, но невероятным образом они сталкиваются. Алекс - преступник, работающий на опасный картель, и Сэм - фельдшер, пытающаяся спасти мир и убегающая от своего прошлого. Неожиданно для себя они становятся участниками реального шоу, наблюдая жизни друг друга по телевизору. Кто же сценарист и постановщик этого представления? И в чем его смысл?



Выпущено: США
Продолжительность: 02:07:07
Озвучивание: Любительское (двухголосое) [DeadSno & den904]

Формат: AVI(XviD)
Качество: HDRip [Рип с BDRemux 1080p]
Видео: 1912 kb/s, 720x384
Аудио: Russian/English: AC3, 192 kb/s (2 ch)
Размер: 2,100 MB
Скачать: Сэмпл

General
Complete name : C:UsersuserDesktopThe.Frame.2014.L2.HDRip.2100MB.avi
Format : AVI
Format/Info : Audio Video Interleave
Format profile : OpenDML
File size : 2.05 GiB
Duration : 2h 7mn
Overall bit rate : 2 314 Kbps
Writing application : VirtualDubMod 1.5.10.3 | www.virtualdub-fr.org || (build 2550/release)
Writing library : VirtualDubMod build 2550/release

Video
ID : 0
Format : MPEG-4 Visual
Format profile : Advanced Simple@L5
Format settings, BVOP : 2
Format settings, QPel : No
Format settings, GMC : No warppoints
Format settings, Matrix : Default (MPEG)
Muxing mode : Packed bitstream
Codec ID : XVID
Codec ID/Hint : XviD
Duration : 2h 7mn
Bit rate : 1 912 Kbps
Width : 720 pixels
Height : 360 pixels
Display aspect ratio : 2.000
Frame rate : 23.976 fps
Color space : YUV
Chroma subsampling : 4:2:0
Bit depth : 8 bits
Scan type : Progressive
Compression mode : Lossy
Bits/(Pixel*Frame) : 0.308
Stream size : 1.70 GiB (83%)
Writing library : XviD 73

Audio #1
ID : 1
Format : AC-3
Format/Info : Audio Coding 3
Mode extension : CM (complete main)
Format settings, Endianness : Big
Codec ID : 2000
Duration : 2h 7mn
Bit rate mode : Constant
Bit rate : 192 Kbps
Channel(s) : 2 channels
Channel positions : Front: L R
Sampling rate : 48.0 KHz
Bit depth : 16 bits
Compression mode : Lossy
Stream size : 174 MiB (8%)
Alignment : Split accross interleaves
Interleave, duration : 42 ms (1.00 video frame)
Interleave, preload duration : 500 ms

Audio #2
ID : 2
Format : AC-3
Format/Info : Audio Coding 3
Mode extension : CM (complete main)
Format settings, Endianness : Big
Codec ID : 2000
Duration : 2h 7mn
Bit rate mode : Constant
Bit rate : 192 Kbps
Channel(s) : 2 channels
Channel positions : Front: L R
Sampling rate : 48.0 KHz
Bit depth : 16 bits
Compression mode : Lossy
Stream size : 175 MiB (8%)
Alignment : Split accross interleaves
Interleave, duration : 42 ms (1.00 video frame)
Interleave, preload duration : 500 ms



pic pic pic
Для увеличения картинки щелкните мышкой по превью

Этот торрент недоступен для скачивания без регистрации, однако доступен по публичной magnet-ссылке (источники с публичных трекеров). Перед использованием ссылки прочтите, пожалуйста Пользовательское соглашение, а также как можно дольше оставайтесь на раздаче! Для того, чтобы скачать сам торрент-файл (который видит больше источников), а также для того, чтобы поблагодарить релизера, вам необходимо зарегистрироваться. Если регистрироваться лень - вы можете также попробовать скачать релиз по нашим партнерским ссылкам ниже.

[underverse.su].t53780.torrent
Трекер: Зарегистрирован   [ 17.04.2015 12:48 ]  

Статус: проверено (by Паукан at 17.04.2015 12:49)
Поблагодарили: 1 человек
Тип торрента: публичный - доступные источники с открытых трекеров: 
Размер: 2,05 GB (занимает 0,47 DVDR, для записи нужно 1 болванка DVDR/RW)
 
 

DrBond Пол:Муж

22-Апр-2015 19:46

Это самый офигенный фильм, который я видел в 2015 году. Я в полном восторге - класс, 2 часа сидел перед монитором как завороженный. Режиссер красавчик! респект ему и уважуха.
:Yahoo!:
Хочу сразу отметить, что фильм жанра арт-хаус, кто понимает, что это такое, остальные будут фукать на фильм. В описании кратко написано содержание фильма и я не буду ничего добавлять. Скажу одно - фильм заставляет мыслить, сюжет остается на мониторе, а в кадре видишь себя со своими проблемами.

Класс, запишу его на диск, в коллекцию!

Яндекс.Метрика powered by Sphinx


В Н И М А Н И Е
Сайт не распространяет и не хранит электронные версии произведений, а лишь бесплатно и без коммерческой выгоды (не требуя взамен платы,
SMS и т.д.) предоставляет доступ к создаваемому пользователями каталогу ссылок на торрент-файлы, которые содержат только списки хеш-сумм.
Убедительная просьба с жалобами обращаться напрямую к пользователю, разместившему торрент файл.

Вверх