Loading...
Error

Исход: Цари и боги / Exodus: Gods and Kings (Ридли Скотт) [2014 г., боевик, драма, приключения, BDRip] Dub (Rus,Ukr) + Original + Sub (Rus,Eng) HQ Underverse

Статистика раздачи
Размер:  2,92 GB   |    Зарегистрирован:  1 год 7 месяцев   |    Скачан:  26 раз
Сидов:  2  |  0 KB/s  ]   Личеров:  0  |  0 KB/s  ]

* - сиды/пиры с внешних источников

   
 
Автор Сообщение

HQ Underverse 

17-Апр-2015 11:55

Исход: Цари и боги / Exodus: Gods and Kings


Год выпуска: 2014
Жанр: боевик, драма, приключения
Страна: США
Режиссер: Ридли Скотт
В ролях: Кристиан Бэйл, Джоэл Эдгертон, Джон Туртурро, Аарон Пол, Бен Мендельсон, Мария Вальверде, Сигурни Уивер, Бен Кингсли, Хиам Аббасс, Исаак Эндрюс
Сюжет фильма:
Ветхозаветная история о великом пророке Моисее и освобождении еврейского народа из египетского плена. Моисей появился на свет в те времена, когда фараон приказал убивать всех новорожденных мальчиков еврейского происхождения. Чтобы спасти его, мать положила малыша в корзину из тростника и отправила вниз по Нилу. Ребенка нашла дочь фараона, которая усыновила его и растила рядом с Рамзесом — будущим фараоном. Много лет спустя, став мужчиной, Моисей бежит из Египта, а затем возвращается туда по велению Господа, чтобы избавить свой народ от оков рабства…

  • Мировая премьера: 3 декабря 2014
  • Российская премьера: 1 января 2015

/
Качество видео: BDRip

Продолжительность: 02:30:20
Формат: avi
Видео: XviD, 720x304, 1867 kbps
Аудио #1: русский, дублированный [лицензия], AC3 5.1, 448 kbps
Аудио #2: английский, оригинал, AC3 5.1, 448 kbps
Аудио #3: украинский, дублированный [лицензия], AC3 5.1, 448 kbps (отдельным файлом: здесь)
Субтитры #1: внешние, SRT, английский
Субтитры #2: внешние, SRT, русский (FORCED)
Субтитры #3: внешние, SRT, русский

Код:

General
Complete name                    : Y:\Исход Цари и Боги\Exodus.Gods.And.Kings.2014.BDRip.XviD.AC3.Rus.D.Eng.O.HQ.Underverse.avi
Format                           : AVI
Format/Info                      : Audio Video Interleave
Format profile                   : OpenDML
File size                        : 2.92 GiB
Duration                         : 2h 30mn
Overall bit rate                 : 2 779 Kbps
Writing application              : VirtualDubMod 1.5.10.3 | www.virtualdub-fr.org || (build 2550/release)
Writing library                  : VirtualDubMod build 2550/release

Video
ID                               : 0
Format                           : MPEG-4 Visual
Format profile                   : Streaming Video@L1
Format settings, BVOP            : Yes
Format settings, QPel            : No
Format settings, GMC             : No warppoints
Format settings, Matrix          : Custom
Codec ID                         : XVID
Codec ID/Hint                    : XviD
Duration                         : 2h 30mn
Bit rate                         : 1 868 Kbps
Width                            : 720 pixels
Height                           : 304 pixels
Display aspect ratio             : 2.35
Frame rate                       : 23.976 fps
Resolution                       : 24 bits
Colorimetry                      : 4:2:0
Scan type                        : Progressive
Bits/(Pixel*Frame)               : 0.356
Stream size                      : 1.96 GiB (67%)
Writing library                  : XviD 66

Audio #1
ID                               : 1
Format                           : AC-3
Format/Info                      : Audio Coding 3
Codec ID                         : 2000
Duration                         : 2h 30mn
Bit rate mode                    : Constant
Bit rate                         : 448 Kbps
Channel(s)                       : 6 channels
Channel positions                : Front: L C R, Surround: L R, LFE
Sampling rate                    : 48.0 KHz
Stream size                      : 481 MiB (16%)
Alignment                        : Split accross interleaves
Interleave, duration             : 42 ms (1.00 video frame)
Interleave, preload duration     : 500 ms

Audio #2
ID                               : 2
Format                           : AC-3
Format/Info                      : Audio Coding 3
Codec ID                         : 2000
Duration                         : 2h 30mn
Bit rate mode                    : Constant
Bit rate                         : 448 Kbps
Channel(s)                       : 6 channels
Channel positions                : Front: L C R, Surround: L R, LFE
Sampling rate                    : 48.0 KHz
Stream size                      : 481 MiB (16%)
Alignment                        : Split accross interleaves
Interleave, duration             : 42 ms (1.00 video frame)
Interleave, preload duration     : 500 ms

General
Complete name                    : Y:\Исход Цари и Боги\Exodus.Gods.And.Kings.2014.BDRip.XviD.AC3.Rus.D.Eng.O.HQ.Underverse.UKR.ac3
Format                           : AC-3
Format/Info                      : Audio Coding 3
File size                        : 481 MiB
Duration                         : 2h 30mn
Overall bit rate                 : 448 Kbps

Audio
Format                           : AC-3
Format/Info                      : Audio Coding 3
Duration                         : 2h 30mn
Bit rate mode                    : Constant
Bit rate                         : 448 Kbps
Channel(s)                       : 6 channels
Channel positions                : Front: L C R, Surround: L R, LFE
Sampling rate                    : 48.0 KHz
Stream size                      : 481 MiB (100%)

Релиз группы:

picpicpic
Для увеличения картинки щелкните мышкой по превью

Этот торрент недоступен для скачивания без регистрации, однако доступен по публичной magnet-ссылке (источники с публичных трекеров). Перед использованием ссылки прочтите, пожалуйста Пользовательское соглашение, а также как можно дольше оставайтесь на раздаче! Для того, чтобы скачать сам торрент-файл (который видит больше источников), а также для того, чтобы поблагодарить релизера, вам необходимо зарегистрироваться. Если регистрироваться лень - вы можете также попробовать скачать релиз по нашим партнерским ссылкам ниже.

[underverse.su].t53778.torrent
Трекер: Зарегистрирован   [ 17.04.2015 11:56 ]  

Статус: проверено (by HQ Underverse at 17.04.2015 12:08)
Поблагодарили: 2 человека
Тип торрента: публичный - доступные источники с открытых трекеров: 
Размер: 2,92 GB (занимает 2/3 DVDR, для записи нужно 1 болванка DVDR/RW)
 
 
Похожие темы
Форум Тема Автор Торрент Отв. Посл. сооб.
T Зарубежное кино [DVDRip, Low-Res HDRip, и т.д.] Исход: Цари и боги / Exodus: Gods and Kings (Ридли Скотт) [2014 г., боевик, драма, приключения, WEB-DLRip] Dub (iTunes) 90ytr90
1 | 0

0 | 1028

84

04.03.2015 05:16

Зарубежное кино [DVDRip, Low-Res HDRip, и т.д.] Исход: Цари и боги / Exodus: Gods and Kings (Ридли Скотт / Ridley Scott) [2014 г., боевик, драма, приключения, HDRip] Dub [Лицензия] Паукан
661 | 11

0 | 964

58

03.04.2015 16:19

Зарубежное кино [HDDVDRip / BDRip / WEB-DL / HDTV 1080/720р] Исход: Цари и боги / Exodus: Gods and Kings (Ридли Скотт / Ridley Scott) [2014 г., боевик, драма, приключения, BDRip 720p] AVO (Д.Есарев) + Original (Eng) + Subs 90ytr90
0 | 1

0 | 1150

49

13.03.2015 18:17

Зарубежное кино [HDDVDRip / BDRip / WEB-DL / HDTV 1080/720р] Исход: Цари и боги / Exodus: Gods and Kings (Ридли Скотт / Ridley Scott) [2014 г., боевик, драма, приключения, BDRip 720p] Dub (Rus,Ukr) + AVO (Д.Есарев) + Original + Sub (Rus,Ukr,Eng) Паукан
0 | 0

0 | 624

8

03.04.2015 16:24

Зарубежное кино [HDDVDRip / BDRip / WEB-DL / HDTV 1080/720р] Исход: Цари и боги / Exodus: Gods and Kings (Ридли Скотт / Ridley Scott) [2014 г., боевик, драма, приключения, BDRip 1080p] Dub (Rus,Ukr) + AVO (Д.Есарев) + Original + Sub (Rus,Ukr,Eng) Паукан
8 | 2

0 | 648

12

03.04.2015 16:28

Tango 

01-Май-2015 11:15

Мультфильм "Принц Египта" один в один...

Яндекс.Метрика powered by Sphinx


В Н И М А Н И Е
Сайт не распространяет и не хранит электронные версии произведений, а лишь бесплатно и без коммерческой выгоды (не требуя взамен платы,
SMS и т.д.) предоставляет доступ к создаваемому пользователями каталогу ссылок на торрент-файлы, которые содержат только списки хеш-сумм.
Убедительная просьба с жалобами обращаться напрямую к пользователю, разместившему торрент файл.

Вверх