Loading...
Error

Салем / Salem / Сезон 2 / Серии: 1-13 из 13 (Ричард Шепард) [2015 г., Фантастика, Драма, Триллер, WEB-DLRip] MVO (RUS, LostFilm)

Статистика раздачи
Размер:  5 GB   |    Зарегистрирован:  2 года   |    Скачан:  9 раз

Полного источника не было: 4 часа

Сидов:  0  |  0 KB/s  ]   Личеров:  0  |  0 KB/s  ]

* - сиды/пиры с внешних источников

   
 
Автор Сообщение

Ведьмочка Пол:Жен

16-Апр-2015 10:52








САЛЕМ / SALEM
«Война ведьм»



Страна: США
Год выпуска: 2015
Жанр: Фантастика, Драма, Триллер
Продолжительность: ~00:55:00 серия
Режиссёр: Ричард Шепард
В ролях: Шэйн Уэст, Джанет Монтгомери, Сет Гейбл, Тэмзин Мёрчант, Эшли Мадекве, Элиз Эберли, Иддо Голдберг, Ксандер Беркли, Лара Грайс, Сэмми Ханратти

Сюжет фильма:
Сериал раскрывает темную, сверхъестественную правду о Салеме — «городе ведьм». В центре сериала «Салем» — эпическая любовная драма в контексте позорного периода кровожадных судов над ведьмами в Америке. Это совершенно новый взгляд на Салем и более чем смелый взгляд на ведьм. Главный герой сериала — Джон Олден — красивый, жесткий, прагматичный ветеран, закаленный десятью годами на войне и побывавший в плену у индейцев. Он возвращается в родной город Салем и оказывается вовлеченным в жестокую охоту на ведьм.

Озвучивание:
  • Профессиональный, Многоголосный, Русский [LostFilm]

Качество видео: WEB-DLRip
Формат: AVI
Видео: XviD, 720x400 (16:9), 23.976 fps, 1000 Кбит/сек
Аудио: MP3, 192 Кбит/сек, 2 Канала, 48.0 КГц

Rip by:




1. К убийству призывая / Cry Havoc
2. Кровавый поцелуй / Blood Kiss
3. Изнутри / From Within
4. Книга теней / Book Of Shadows
5. Виноцветное море / The Wine Dark Sea
6. К добру ли эта встреча при луне / I'll Met by Moonlight
7. Манящая / The Beckoning Fair One
8. Мертвые птицы / Dead Birds
9. Плата за грехи / Wages of Sin
10. Пока смерть не разлучит нас / Til Death Do Us Part
11. Ад на земле / On Earth as in Hell
12. Полночи не бывать / Midnight Never Come
13. Ведьмин час / The Witching Hour


General
Complete name : \Salem (S02) LostFilm\Salem.S02E01.rus.LostFilm.TV.avi
Format : AVI
Format/Info : Audio Video Interleave
File size : 417 MiB
Duration : 50mn 23s
Overall bit rate mode : Variable
Overall bit rate : 1 156 Kbps
Writing application : Nandub v1.0rc2
Writing library : Nandub build 1853/release

Video
ID : 0
Format : MPEG-4 Visual
Format profile : Advanced Simple@L5
Format settings, BVOP : No
Format settings, QPel : No
Format settings, GMC : No warppoints
Format settings, Matrix : Default (H.263)
Codec ID : XVID
Codec ID/Hint : XviD
Duration : 50mn 23s
Bit rate : 956 Kbps
Width : 720 pixels
Height : 400 pixels
Display aspect ratio : 16:9
Frame rate : 23.976 fps
Color space : YUV
Chroma subsampling : 4:2:0
Bit depth : 8 bits
Scan type : Progressive
Compression mode : Lossy
Bits/(Pixel*Frame) : 0.138
Stream size : 345 MiB (83%)
Writing library : XviD 1.2.1 (UTC 2008-12-04)

Audio
ID : 1
Format : MPEG Audio
Format version : Version 1
Format profile : Layer 3
Mode : Joint stereo
Mode extension : MS Stereo
Codec ID : 55
Codec ID/Hint : MP3
Duration : 50mn 23s
Bit rate mode : Variable
Bit rate : 192 Kbps
Channel(s) : 2 channels
Sampling rate : 48.0 KHz
Compression mode : Lossy
Stream size : 67.7 MiB (16%)
Alignment : Aligned on interleaves
Interleave, duration : 24 ms (0.58 video frame)
Interleave, preload duratio : 482 ms
Writing library : LAME3.97b
Encoding settings : -m j -V 4 -q 3 -lowpass 18.6 --abr 192


picpicpicpicpic
Для увеличения картинки щелкните мышкой по превью



Этот торрент недоступен для скачивания без регистрации, однако доступен по публичной magnet-ссылке (источники с публичных трекеров). Перед использованием ссылки прочтите, пожалуйста Пользовательское соглашение, а также как можно дольше оставайтесь на раздаче! Для того, чтобы скачать сам торрент-файл (который видит больше источников), а также для того, чтобы поблагодарить релизера, вам необходимо зарегистрироваться. Если регистрироваться лень - вы можете также попробовать скачать релиз по нашим партнерским ссылкам ниже.

[underverse.su].t53702.torrent
Трекер: Зарегистрирован   [ 03.07.2015 14:07 ]  

Статус: проверено (by Ведьмочка at 03.07.2015 14:10)
Поблагодарили: 3 человека
Тип торрента: публичный - доступные источники с открытых трекеров: 
Размер: 5 GB (занимает 1,14 DVDR, для записи нужно 2 болванки DVDR/RW)
 
 
Похожие темы
Форум Тема Автор Торрент Отв. Посл. сооб.
Зарубежные сериалы [BD / Remux / BDRip / WEB-DL / HDTV 1080/720р] Салем / Salem / Сезон 1 / Серии: 1-13 из 13 (Ричард Шепард) [2014 г., Фантастика, Драма, Триллер, WEB-DLRip 720p] MVO (RUS, LostFilm) Ведьмочка
2 | 0

0 | 2662

14

01.07.2014 02:22

Зарубежные сериалы [BD / Remux / BDRip / WEB-DL / HDTV 1080/720р] Салем / Salem / Сезон: 1 / Серии: 1-13 (13) (Ричард Шепард) [2014, драма, триллер, фантастика, WEB-DL 1080p] MVO (AlexFilm) uzi2009
3 | 1

0 | 1339

5

13.08.2014 05:46



Последний раз редактировалось: Ведьмочка (03.07.2015 14:07), всего редактировалось 14 раз(а)

Яндекс.Метрика powered by Sphinx


В Н И М А Н И Е
Сайт не распространяет и не хранит электронные версии произведений, а лишь бесплатно и без коммерческой выгоды (не требуя взамен платы,
SMS и т.д.) предоставляет доступ к создаваемому пользователями каталогу ссылок на торрент-файлы, которые содержат только списки хеш-сумм.
Убедительная просьба с жалобами обращаться напрямую к пользователю, разместившему торрент файл.

Вверх