Loading...
Error

Призрак в кривом зеркале (4 серии из 4) (Вячеслав Лавров) [2015 г., детектив, криминал, WEB-DLRip]

Статистика раздачи
Размер:  2,34 GB   |    Зарегистрирован:  1 год 7 месяцев   |    Скачан:  27 раз

Полного источника не было: 8 месяцев

Сидов:  0  |  0 KB/s  ]   Личеров:  0  |  0 KB/s  ]

* - сиды/пиры с внешних источников

   
 
Автор Сообщение

nemos Пол:Муж

11-Апр-2015 21:19

Призрак в кривом зеркале


Год выпуска: 2015
Жанр: детектив, криминал
Страна: Россия
Режиссер: Вячеслав Лавров
В ролях: Алексей Секирин, Сергей Колешня, Людмила Гаврилова, Анжелика Кошевая, Нина Шацкая, Глеб Подгородинский, Нина Лощинина, Светлана Малюкова, Денис Старков, Виктория Герасимова, Денис Бобышев, Алексей Кашников
Сюжет фильма:
Причина, по которой владелица старинной усадьбы мадам Шестакова приглашает сыщиков к себе в дом, кажется на первый взгляд пугающей. В доме завелось привидение, считает она. По ночам кто-то скрипит половицами, повсюду спонтанно то включается, то выключается свет, а во флигеле мелькает тень женщины в белом. В привидений наши герои, разумеется, не верят, поэтому вынуждены докапываться до правды, включая логику и дедукцию. К тому же, как объяснить убийства, происходящие в округе, которые явно связаны с тайнами, которые хранит дом Шестаковой? Привидению, даже если допустить, что оно существует, такое явно не под силу...


Качество видео: WEB-DLRip

Продолжительность: 00:45:05 серия
Формат: AVI
Видео: XviD, 720x400, 1654 kbps
Аудио: русский, AC3 2.0, 192 kbps

Код:

General
Название : E:\4005\Prizrak.v.krivom.zerkale.2015.WEB-DLRip.Files-x\01.Prizrak.v.krivom.zerkale.2015.WEB-DLRip.Files-x.avi
Формат : AVI
Формат/Info : Audio Video Interleave
Размер файла : 598 MiB
Длительность : 45mn 5s
Общий Битрейт : 1 856 Kbps
Создано приложением : VirtualDubMod 1.5.10.3 | (build 2550/release)
Writing library : VirtualDubMod build 2550/release

Video
ID : 0
Формат : MPEG-4 Visual
Формат profile : Advanced Simple@L5
Формат настройки, BVOP : 1
Формат настройки, QPel : No
Формат настройки, GMC : No warppoints
Формат настройки, Matrix : Custom
Кодек ID : XVID
Кодек ID/Hint : XviD
Длительность : 45mn 5s
Битрейт : 1 654 Kbps
Width : 720 пикселей
Высота : 400 пикселей
Соотношение кадра : 16:9
Частота кадров : 25.000 fps
Цветопередача : YUV
Chroma subsampling : 4:2:0
Разрядность : 8 bits
Тип сканирования : Progressive
Режим сжатия : Lossy
Bits/(Pixel*Frame) : 0.230
Размер потока : 533 MiB (89%)
Writing library : XviD 73

Audio
ID : 1
Формат : AC-3
Формат/Info : Audio Coding 3
Расширение режима : CM (complete main)
Формат настройки, Endianness : Big
Кодек ID : 2000
Длительность : 45mn 5s
Битрейт mode : Constant
Битрейт : 192 Kbps
Каналы(s) : 2 канала
Каналы positions : Front: L R
Частота : 48.0 KHz
Разрядность : 16 bits
Режим сжатия : Lossy
Размер потока : 61.9 MiB (10%)
Выравнивание : Split accross interleaves
Interleave, Длительность : 40 ms (1.00 video frame)
Interleave, preload Длительность : 500 ms
picpicpicpic
Для увеличения картинки щелкните мышкой по превью

Этот торрент недоступен для скачивания без регистрации, однако доступен по публичной magnet-ссылке (источники с публичных трекеров). Перед использованием ссылки прочтите, пожалуйста Пользовательское соглашение, а также как можно дольше оставайтесь на раздаче! Для того, чтобы скачать сам торрент-файл (который видит больше источников), а также для того, чтобы поблагодарить релизера, вам необходимо зарегистрироваться. Если регистрироваться лень - вы можете также попробовать скачать релиз по нашим партнерским ссылкам ниже.

[underverse.su].t53610.torrent
Трекер: Зарегистрирован   [ 11.04.2015 21:19 ]  

Статус: проверено (by nemos at 11.04.2015 21:21)
Поблагодарили: 2 человека
Тип торрента: публичный - доступные источники с открытых трекеров: 
Размер: 2,34 GB (занимает 0,54 DVDR, для записи нужно 1 болванка DVDR/RW)
 
 
Похожие темы
Форум Тема Автор Торрент Отв. Посл. сооб.
* Аниме Призрак в доспехах / Kokaku kidotai / Ghost in the Shell (Осии Мамору / Mamoru Oshii) [1995 г., аниме, киберпанк, фэнтези, триллер, HDRip] Dub (ОРТ) + DVO (Гланц и Королева) + 2xAVO (Гланц, Гаврилов)... 90ytr90
8 | 6

0 | 36

0

17.11.2016 09:32

* Аниме Призрак в доспехах / Kokaku kidotai / Ghost in the Shell (Осии Мамору / Mamoru Oshii) [1995 г., аниме, киберпанк, фэнтези, триллер, BDRip] Dub (ОРТ) + DVO (Tycoon) 90ytr90
38 | 2

0 | 31

1

17.11.2016 09:17

* Аниме HD-Video Призрак в доспехах / Kokaku kidotai / Ghost in the Shell (Осии Мамору / Mamoru Oshii) [1995 г., аниме, киберпанк, фэнтези, BDRip 1080p] Dub (ОРТ) + 2xDVO (Гланц и Королева, Tycoon) + 2xAVO (Гаврилов,... 90ytr90
142 | 5

0 | 50

6

17.11.2016 09:50

Архив Призрак в доспехах: Синдром одиночки / Ghost in the Shell: Stand Alone Complex Alone Complex / TV, 2 сезона, серии 1-52 из 52 (Камияма Кэндзи) [1995 г., приключения, фантастика, киберпанк, 26 х DVD-5] Печаль'ka
0 | 0

8 | 2307

1

17.02.2011 14:46

Архив Призрак в доспехах 2: Невинность / Ghost in Shell: Innocence / Movie, (Мамору Осии) [2004 г., киберпанк, меха, фантастика, боевик, DVD-9 & DVD-5] Печаль'ka
0 | 0

4 | 1677

0

17.02.2011 14:46

Архив Призрак в доспехах 2.0 / Ghost in the Shell 2.0 / Movie, (Мамору Осии) [2008, Фантастика, боевик, триллер, DVD-9] Yo1990
0 | 0

7 | 1892

4

17.02.2011 14:46

vazonov11 Пол:Муж

17-Апр-2015 09:14

неплохой детективчик.

Яндекс.Метрика powered by Sphinx


В Н И М А Н И Е
Сайт не распространяет и не хранит электронные версии произведений, а лишь бесплатно и без коммерческой выгоды (не требуя взамен платы,
SMS и т.д.) предоставляет доступ к создаваемому пользователями каталогу ссылок на торрент-файлы, которые содержат только списки хеш-сумм.
Убедительная просьба с жалобами обращаться напрямую к пользователю, разместившему торрент файл.

Вверх