Loading...
Error

Мировая кабала (4 серия) [2014 г., документальный, HDTVRip]

Статистика раздачи
Размер:  672 MB   |    Зарегистрирован:  1 год 7 месяцев   |    Скачан:  36 раз
Сидов:  1  |  0 KB/s  ]   Личеров:  0  |  0 KB/s  ]

* - сиды/пиры с внешних источников

   
 
Автор Сообщение

матроскин Пол:Муж

11-Апр-2015 07:56

Мировая кабала (4 серия)


Год выпуска: 2014
Жанр: документальный
Страна: Россия
Выпущено: Красное Тв
Сюжет фильма:
Когда...люди теряют свои дома и имущество, они становятся более уязвимыми и контролируемыми, и становится легче управлять с помощью твердой руки правительства, наложенной через центральную монетарную власть, под контролем, крупнейших финансистов..
Качество видео: HDTVRip

Продолжительность: 00:27:07
Формат: avi
Видео: DivX 4, 854x480, 3193 kbps
Аудио: русский, оригинал, MP3 2.0, 256 kbps

Код:

General
Complete name                    : C:\Users\Ohrana\Desktop\mirovaya_kabala 4 seriya.avi
Format                           : AVI
Format/Info                      : Audio Video Interleave
File size                        : 672 MiB
Duration                         : 27mn 7s
Overall bit rate                 : 3 462 Kbps
Writing application              : Lavf52.93.0

Video
ID                               : 0
Format                           : MPEG-4 Visual
Format profile                   : Simple@L1
Format settings, BVOP            : No
Format settings, QPel            : No
Format settings, GMC             : No warppoints
Format settings, Matrix          : Default (H.263)
Codec ID                         : DIVX
Codec ID/Info                    : Project Mayo
Codec ID/Hint                    : DivX 4
Duration                         : 27mn 7s
Bit rate                         : 3 193 Kbps
Width                            : 854 pixels
Height                           : 480 pixels
Display aspect ratio             : 16/9
Frame rate                       : 25.000 fps
Resolution                       : 24 bits
Colorimetry                      : 4:2:0
Scan type                        : Progressive
Bits/(Pixel*Frame)               : 0.312
Stream size                      : 620 MiB (92%)
Writing library                  : Lavc52.108.0

Audio
ID                               : 1
Format                           : MPEG Audio
Format version                   : Version 1
Format profile                   : Layer 3
Codec ID                         : 55
Codec ID/Hint                    : MP3
Duration                         : 27mn 7s
Bit rate mode                    : Constant
Bit rate                         : 256 Kbps
Channel(s)                       : 2 channels
Sampling rate                    : 44.1 KHz
Resolution                       : 16 bits
Stream size                      : 49.7 MiB (7%)
Alignment                        : Aligned on interleaves
Interleave, duration             : 26 ms (0.65 video frame)
Interleave, preload duration     : 52 ms
Writing library                  : LAME3.98.4

picpicpicpicpicpic
Для увеличения картинки щелкните мышкой по превью

Этот торрент недоступен для скачивания без регистрации, однако доступен по публичной magnet-ссылке (источники с публичных трекеров). Перед использованием ссылки прочтите, пожалуйста Пользовательское соглашение, а также как можно дольше оставайтесь на раздаче! Для того, чтобы скачать сам торрент-файл (который видит больше источников), а также для того, чтобы поблагодарить релизера, вам необходимо зарегистрироваться. Если регистрироваться лень - вы можете также попробовать скачать релиз по нашим партнерским ссылкам ниже.

[underverse.su].t53600.torrent
Трекер: Зарегистрирован   [ 11.04.2015 07:56 ]  

Статус: проверено (by матроскин at 11.04.2015 07:57)
Поблагодарили: 3 человека
Тип торрента: публичный - доступные источники с открытых трекеров: 
Размер: 672 MB (занимает 0,15 DVDR, для записи нужно 1 болванка DVDR/RW)
 
 
Похожие темы
Форум Тема Автор Торрент Отв. Посл. сооб.
Исторические фильмы Мировая кабала (1 серия) [2014 г., документальный, HDTVRip] матроскин
1 | 0

2 | 1122

80

25.01.2015 18:38

Исторические фильмы Мировая кабала. (2 серия) [2014 г., документальный, HDTVRip] матроскин
1 | 0

8 | 1099

64

25.03.2015 21:16

Исторические фильмы Мировая кабала. (3 серия) [2014 г., документальный, HDTVRip] матроскин
1 | 0

3 | 1292

65

30.03.2015 19:37

матроскин Пол:Муж

11-Апр-2015 07:58



матроскин Пол:Муж

12-Апр-2015 22:40

12 АПРЕЛЯ 2015 ГОДА, ДЕНЬ СОВЕТСКОЙ КОСМОНАВТИКИ !!!! С ПРАЗДНИКОМ ДРУЗЬЯ!!!12 апреля 1961 года, ранним весенним утром, мощная ракета-носитель вывела на орбиту космический корабль "Восток" с первым космонавтом Земли - гражданином Советского Союза Юрием Алексеевичем Гагариным на борту.

namek Пол:Муж

29-Янв-2016 17:11

Замечательный фильм - рекомендую !

Яндекс.Метрика powered by Sphinx


В Н И М А Н И Е
Сайт не распространяет и не хранит электронные версии произведений, а лишь бесплатно и без коммерческой выгоды (не требуя взамен платы,
SMS и т.д.) предоставляет доступ к создаваемому пользователями каталогу ссылок на торрент-файлы, которые содержат только списки хеш-сумм.
Убедительная просьба с жалобами обращаться напрямую к пользователю, разместившему торрент файл.

Вверх