Loading...
Error

ЧОП (1-16 серии из 16) (Михаил Соловьев) [2015 г., комедия, SatRip]

Статистика раздачи
Размер:  4,82 GB   |    Зарегистрирован:  1 год 7 месяцев   |    Скачан:  28 раз

Полного источника не было: 12 дней

Сидов:  0  |  0 KB/s  ]   Личеров:  0  |  0 KB/s  ]

* - сиды/пиры с внешних источников

   
 
Автор Сообщение

nemos Пол:Муж

08-Апр-2015 17:53

ЧОП


Год выпуска: 2015
Жанр: комедия
Страна: Россия
Режиссер: Михаил Соловьев
В ролях: Сергей Степин (Лев Борисович), Олег Масленников-Войтов (Толя), Сергей Терещенко (Федя), Сэм Никель (Андрей), Денис Бузин (Слава), Яна Кошкина (Снежана), Дмитрий Белоцерковский (Виталик), Али Алиев, Ислам Мамергов, Виталий Гумеров, Александр Зарядин, Артур Казбеков

Сюжет фильма:
Сериал повествует о жизни бизнес-центра «Соловей», в котором трудится частное охранное предприятие «Кедр». Лев Борисович, начальник ЧОП, является, как он сам считает, не только охранником материальных, но и морально-нравственных ценностей. В его подчинении находятся четыре охранника - Федя, Толя, Слава и новичок Андрей. Андрей мечтает стать рок-звездой, поэтому работой охранника не дорожит, но в первый же рабочий день встречает Снежану, работницу спа-салона, и потихоньку втягивается в будни бизнес-центра.
Ограбление спермобанка, взрыв здания, разбитая «Феррари» - это не новый фильм с Джейсоном Стетхемом, а всего лишь история о паре дней из скромной жизни охранников бизнес-центра «Соловей».


Качество видео: SatRip

Продолжительность: 00:25:17 (Серия)
Формат: AVI
Видео: XviD, 720x400, 1800 kbps
Аудио: русский, MP3 2.0, 128 kbps

Код:

General

Формат                                   : AVI
Формат/Info                              : Audio Video Interleave
Размер файла                                : 350 MiB
Длительность                                 : 25mn 17s
Общий Битрейт                         : 1 938 Kbps
Создано приложением                      : VirtualDubMod 1.5.10.3 | www.virtualdub-fr.org || (build 2550/release)
Writing library                          : VirtualDubMod build 2550/release

Video
ID                                       : 0
Формат                                   : MPEG-4 Visual
Формат profile                           : Advanced Simple@L5
Формат настройки, BVOP                    : 2
Формат настройки, QPel                    : No
Формат настройки, GMC                     : No warppoints
Формат настройки, Matrix                  : Default (H.263)
Кодек ID                                 : XVID
Кодек ID/Hint                            : XviD
Длительность                                 : 25mn 17s
Битрейт                                 : 1 800 Kbps
Width                                    : 720 пикселей
Высота                                   : 400 пикселей
Соотношение кадра                     : 16:9
Частота кадров                               : 25.000 fps
Цветопередача                              : YUV
Chroma subsampling                       : 4:2:0
Разрядность                                : 8 bits
Тип сканирования                                : Progressive
Режим сжатия                         : Lossy
Bits/(Pixel*Frame)                       : 0.250
Размер потока                              : 326 MiB (93%)
Writing library                          : XviD 1.2.1 (UTC 2008-12-04)

Audio
ID                                       : 1
Формат                                   : MPEG Audio
Формат version                           : Version 1
Формат profile                           : Layer 3
Mode                                     : Joint stereo
Расширение режима                           : MS Stereo
Кодек ID                                 : 55
Кодек ID/Hint                            : MP3
Длительность                                 : 25mn 17s
Битрейт mode                            : Constant
Битрейт                                 : 128 Kbps
Каналы(s)                               : 2 канала
Частота                            : 48.0 KHz
Режим сжатия                         : Lossy
Размер потока                              : 23.1 MiB (7%)
Выравнивание                                : Aligned on interleaves
Interleave, Длительность                     : 40 ms (1.00 video frame)
Interleave, preload Длительность             : 504 ms
Writing library                          : LAME3.99r
Encoding настройки                        : -m j -V 4 -q 9 -lowpass 17 -b 128
picpicpicpic
Для увеличения картинки щелкните мышкой по превью

Этот торрент недоступен для скачивания без регистрации, однако доступен по публичной magnet-ссылке (источники с публичных трекеров). Перед использованием ссылки прочтите, пожалуйста Пользовательское соглашение, а также как можно дольше оставайтесь на раздаче! Для того, чтобы скачать сам торрент-файл (который видит больше источников), а также для того, чтобы поблагодарить релизера, вам необходимо зарегистрироваться. Если регистрироваться лень - вы можете также попробовать скачать релиз по нашим партнерским ссылкам ниже.

[underverse.su].t54225.torrent
Трекер: Зарегистрирован   [ 30.04.2015 16:07 ]  

Статус: проверено (by nemos at 02.05.2015 17:50)
Поблагодарили: 3 человека
Тип торрента: публичный - доступные источники с открытых трекеров: 
Размер: 4,82 GB (занимает 1,1 DVDR, для записи нужно 2 болванки DVDR/RW)
 
 


Последний раз редактировалось: nemos (02.05.2015 17:49), всего редактировалось 12 раз(а)

nemos Пол:Муж

09-Апр-2015 14:55

Раздача обновлена! Добавлены все серии.

Яндекс.Метрика powered by Sphinx


В Н И М А Н И Е
Сайт не распространяет и не хранит электронные версии произведений, а лишь бесплатно и без коммерческой выгоды (не требуя взамен платы,
SMS и т.д.) предоставляет доступ к создаваемому пользователями каталогу ссылок на торрент-файлы, которые содержат только списки хеш-сумм.
Убедительная просьба с жалобами обращаться напрямую к пользователю, разместившему торрент файл.

Вверх