Loading...
Error

Таинственная Россия - Ставропольский край [2013 г., документальный, TVRip]

Статистика раздачи
Размер:  474 MB   |    Зарегистрирован:  1 год 7 месяцев   |    Скачан:  9 раз

Полного источника не было: 2 дня 19 часов

Сидов:  0  |  0 KB/s  ]   Личеров:  0  |  0 KB/s  ]

* - сиды/пиры с внешних источников

   
 
Автор Сообщение

матроскин Пол:Муж

08-Апр-2015 11:21

Таинственная Россия - Ставропольский край


Год выпуска: 2013
Жанр: документальный
Страна: Россия
Режиссер: Сергей Краус
Выпущено: Телеканал НТВ
Сюжет фильма:
В Ставропольском крае местные жители не сомневаются: НЛО не выдумка, они более чем реальны. Ставропольцы уже не в первый раз становятся свидетелями странных явлений на улицах своего города. Странные свечения, загадочные огни и шары на фотопленке они, не сомневаясь, приписывают деятельности НЛО – загадочным инопланетным кораблям. Причем следы инопланетян на территории края прослеживаются с глубокой древности: в местном эпосе и легендах. Но кто эти загадочные пришельцы? Что им нужно? Где они скрывают свои базы?
Качество видео: TVRip

Продолжительность: 00:40:30
Формат: avi
Видео: XviD, 704x400, 1497 kbps
Аудио: русский, оригинал, MP3 2.0, 128 kbps

Код:

General
Complete name                    : C:\Users\Ohrana\Desktop\Tainstvennaya.Rossiya Stavropolskiy krai.avi
Format                           : AVI
Format/Info                      : Audio Video Interleave
File size                        : 474 MiB
Duration                         : 40mn 30s
Overall bit rate                 : 1 635 Kbps
Writing application              : VirtualDubMod 1.5.10.2 (build 2540/release)
Writing library                  : VirtualDub build 32507/release

Video
ID                               : 0
Format                           : MPEG-4 Visual
Format profile                   : Streaming Video@L1
Format settings, BVOP            : Yes
Format settings, QPel            : No
Format settings, GMC             : No warppoints
Format settings, Matrix          : Default (MPEG)
Codec ID                         : XVID
Codec ID/Hint                    : XviD
Duration                         : 40mn 30s
Bit rate                         : 1 497 Kbps
Width                            : 704 pixels
Height                           : 400 pixels
Display aspect ratio             : 16/9
Frame rate                       : 25.000 fps
Resolution                       : 24 bits
Colorimetry                      : 4:2:0
Scan type                        : Progressive
Bits/(Pixel*Frame)               : 0.213
Stream size                      : 434 MiB (92%)
Writing library                  : XviD 64

Audio
ID                               : 1
Format                           : MPEG Audio
Format version                   : Version 1
Format profile                   : Layer 3
Codec ID                         : 55
Codec ID/Hint                    : MP3
Duration                         : 40mn 30s
Bit rate mode                    : Constant
Bit rate                         : 128 Kbps
Channel(s)                       : 2 channels
Sampling rate                    : 48.0 KHz
Resolution                       : 16 bits
Stream size                      : 37.1 MiB (8%)
Alignment                        : Aligned on interleaves
Interleave, duration             : 40 ms (1.00 video frame)
Interleave, preload duration     : 504 ms
Writing library                  : LAME3.90.3

picpicpicpicpicpic
Для увеличения картинки щелкните мышкой по превью

Этот торрент недоступен для скачивания без регистрации, однако доступен по публичной magnet-ссылке (источники с публичных трекеров). Перед использованием ссылки прочтите, пожалуйста Пользовательское соглашение, а также как можно дольше оставайтесь на раздаче! Для того, чтобы скачать сам торрент-файл (который видит больше источников), а также для того, чтобы поблагодарить релизера, вам необходимо зарегистрироваться. Если регистрироваться лень - вы можете также попробовать скачать релиз по нашим партнерским ссылкам ниже.

[underverse.su].t53529.torrent
Трекер: Зарегистрирован   [ 08.04.2015 11:21 ]  

Статус: проверено (by матроскин at 08.04.2015 11:22)
Поблагодарили: пока никто не поблагодарил...
Тип торрента: публичный - доступные источники с открытых трекеров: 
Размер: 474 MB (занимает 0,11 DVDR, для записи нужно 1 болванка DVDR/RW)
 
 
Похожие темы
Форум Тема Автор Торрент Отв. Посл. сооб.
Зарубежное кино [DVDRip, Low-Res HDRip, и т.д.] Таинственный Альберт Ноббс / Albert Nobbs (Родриго Гарсия) [2011 г., драма, HDRip] RG NewCinema
0 | 0

0 | 442

1

20.06.2012 15:12

Зарубежное кино [DVDRip, Low-Res HDRip, и т.д.] Таинственный остров / Mysterious Island (Кай Чунг Чунг / Kai Cheung Chung) [2011 г., ужасы, DVDRip] VO (den904) 90ytr90
2 | 0

0 | 528

6

24.09.2012 15:08

Зарубежное кино [DVDRip, Low-Res HDRip, и т.д.] Таинственный Альберт Ноббс / Albert Nobbs (Родриго Гарсия / Rodrigo Garcia) [2011, Великобритания, Ирландия, Франция, США, драма, HDRip] MVO Garnett
0 | 0

0 | 530

11

26.04.2013 16:50

Зарубежное кино [DVDRip, Low-Res HDRip, и т.д.] Таинственный путь / Mystery Road (Иван Сен) [2013 г., триллер, детектив, HDRip] VO [datynet] Паукан
4 | 0

0 | 1292

22

30.04.2014 11:50

BBC Таинственный мир гормонов / The Fantastical World of Hormones with Professor John Wass (Джеймс Сенди) [2014 г., документальный, научно-познавательный, HDTVRip 720p] Dub + Original (Eng) + Sub (Eng) ARI71
1 | 0

1 | 364

3

24.09.2016 21:25

BBC Таинственный мир гормонов / The Fantastical World of Hormones with Professor John Wass (Джеймс Сенди) [2014 г., документальный, научно-познавательный, HDTVRip] Dub (Видеофильм ТВ) ARI71
65 | 0

1 | 494

6

04.10.2016 11:29

Научно-популярные фильмы Таинственная Россия - Пермский край [2011 г., документальный, TVRip] матроскин
0 | 0

2 | 709

9

02.05.2015 20:30

Релизы Таинственные сказки: Околдованный город. Коллекционное издание / Shrouded Tales: The Spellbound Land. Collector's Edition [2014 г., Квест, Поиск Предметов] RUS [P] Станислав Карбанович
57 | 1

1 | 897

16

25.02.2015 17:20

* Архив Таинственный остров (Владимир Тихий) [2008 г., триллер, DVDRip] seriiko

7 | 1610

29.08.2010 23:52

Архив Таинственная игра / Fushigi Yuugi / Mysterious Play / TV-series, 1-52 из 52 (Камэгаки Хадзимэ) [1995 г., приключения, романтика, фэнтези, сёдзё, DVD-9] Печаль'ka
0 | 0

2 | 2172

0

17.02.2011 14:46

матроскин Пол:Муж

08-Апр-2015 11:22

матроскин Пол:Муж

02-Май-2015 20:27


Яндекс.Метрика powered by Sphinx


В Н И М А Н И Е
Сайт не распространяет и не хранит электронные версии произведений, а лишь бесплатно и без коммерческой выгоды (не требуя взамен платы,
SMS и т.д.) предоставляет доступ к создаваемому пользователями каталогу ссылок на торрент-файлы, которые содержат только списки хеш-сумм.
Убедительная просьба с жалобами обращаться напрямую к пользователю, разместившему торрент файл.

Вверх