Loading...
Error

(Electronic, Jazz, Future Jazz) Mop Mop - Ritual Of The Savage (2010) [FLAC (Image+.CUE), lossless]

Статистика раздачи
Размер:  325 MB   |    Зарегистрирован:  2 года 7 месяцев   |    Скачан:  7 раз

Полного источника не было: 6 месяцев

Сидов:  0  |  0 KB/s  ]   Личеров:  0  |  0 KB/s  ]

* - сиды/пиры с внешних источников

   
 
Автор Сообщение

8ad_R060d Пол:Муж

07-Апр-2015 20:20

Mop Mop - Ritual Of The Savage

Жанр: Electronic, Jazz, Future Jazz
Год выпуска: 2010
Источник: CD
Производитель: Germany, INFRACom! ‎– IC157-2
Аудиокодек: FLAC
Тип рипа: Image+.CUE
Битрейт: lossless
Продолжительность: 00:47:49
Треклист:

01. The Return Of The King
02. Destination
03. Ash
04. Mr.Know It All
05. So High
06. Outerspace
07. Blue Soul
08. African Freedom
09. Ritual Of The Savage
10. Naja Haje (Omaggio A Don Cherry)
11. Hot Pot
12. Aria
Exact Audio Copy V0.99 prebeta 4 from 23. January 2008

EAC extraction logfile from 24. May 2010, 19:32

Mop Mop / Ritual Of The Savage

Used drive : PIONEER DVD-RW DVR-112D Adapter: 1 ID: 0

Read mode : Secure
Utilize accurate stream : Yes
Defeat audio cache : Yes
Make use of C2 pointers : No

Read offset correction : 48
Overread into Lead-In and Lead-Out : No
Fill up missing offset samples with silence : Yes
Delete leading and trailing silent blocks : No
Null samples used in CRC calculations : Yes
Used interface : Installed external ASPI interface

Used output format : User Defined Encoder
Selected bitrate : 192 kBit/s
Quality : Low
Add ID3 tag : Yes
Command line compressor : C:\Program Files\E A C Audio\Flac\flac.exe
Additional command line options : -V -8 -T "artist=%a" -T "title=%t" -T "album=%g" -T "date=%y" -T "tracknumber=%n" -T "genre=%m" %s

TOC of the extracted CD

Track | Start | Length | Start sector | End sector
---------------------------------------------------------
1 | 0:00.00 | 1:15.60 | 0 | 5684
2 | 1:15.60 | 5:02.16 | 5685 | 28350
3 | 6:18.01 | 5:01.58 | 28351 | 50983
4 | 11:19.59 | 4:37.45 | 50984 | 71803
5 | 15:57.29 | 5:02.14 | 71804 | 94467
6 | 20:59.43 | 1:54.40 | 94468 | 103057
7 | 22:54.08 | 5:13.34 | 103058 | 126566
8 | 28:07.42 | 5:20.32 | 126567 | 150598
9 | 33:27.74 | 1:32.55 | 150599 | 157553
10 | 35:00.54 | 6:18.24 | 157554 | 185927
11 | 41:19.03 | 5:04.08 | 185928 | 208735
12 | 46:23.11 | 1:26.09 | 208736 | 215194

Range status and errors

Selected range

Filename E:\tvixhd1\lossless-room.moole.ru\_Mop Mop - Ritual Of The Savage\Mop Mop - Ritual Of The Savage.wav

Peak level 100.0 %
Range quality 99.9 %
Test CRC C8476C05
Copy CRC C8476C05
Copy OK

No errors occurred

AccurateRip summary

Track 1 not present in database
Track 2 not present in database
Track 3 not present in database
Track 4 not present in database
Track 5 not present in database
Track 6 not present in database
Track 7 not present in database
Track 8 not present in database
Track 9 not present in database
Track 10 not present in database
Track 11 not present in database
Track 12 not present in database

None of the tracks are present in the AccurateRip database

End of status report
REM GENRE "Nu Jazz "
REM DATE 2010
REM PLACE http://lossless-room.moole.ru
REM RIP by SKLON
REM DISCID A90B350C
REM COMMENT "ExactAudioCopy v0.99pb4"
PERFORMER "Mop Mop"
TITLE "Ritual Of The Savage"
FILE "Mop Mop - Ritual Of The Savage.flac" WAVE
TRACK 01 AUDIO
TITLE "The Return Of The King"
PERFORMER "Mop Mop"
INDEX 01 00:00:00
TRACK 02 AUDIO
TITLE "Destination"
PERFORMER "Mop Mop"
INDEX 01 01:15:60
TRACK 03 AUDIO
TITLE "Ash"
PERFORMER "Mop Mop"
INDEX 01 06:18:01
TRACK 04 AUDIO
TITLE "Mr.Know It All"
PERFORMER "Mop Mop"
INDEX 01 11:19:59
TRACK 05 AUDIO
TITLE "So High"
PERFORMER "Mop Mop"
INDEX 01 15:57:29
TRACK 06 AUDIO
TITLE "Outerspace"
PERFORMER "Mop Mop"
INDEX 01 20:59:43
TRACK 07 AUDIO
TITLE "Blue Soul"
PERFORMER "Mop Mop"
INDEX 01 22:54:08
TRACK 08 AUDIO
TITLE "African Freedom"
PERFORMER "Mop Mop"
INDEX 01 28:07:42
TRACK 09 AUDIO
TITLE "Ritual Of The Savage"
PERFORMER "Mop Mop"
INDEX 01 33:27:74
TRACK 10 AUDIO
TITLE "Naja Haje (Omaggio A Don Cherry)"
PERFORMER "Mop Mop"
INDEX 01 35:00:54
TRACK 11 AUDIO
TITLE "Hot Pot"
PERFORMER "Mop Mop"
INDEX 01 41:19:03
TRACK 12 AUDIO
TITLE "Aria"
PERFORMER "Mop Mop"
INDEX 01 46:23:11

Этот торрент недоступен для скачивания без регистрации, однако доступен по публичной magnet-ссылке (источники с публичных трекеров). Перед использованием ссылки прочтите, пожалуйста Пользовательское соглашение, а также как можно дольше оставайтесь на раздаче! Для того, чтобы скачать сам торрент-файл (который видит больше источников), а также для того, чтобы поблагодарить релизера, вам необходимо зарегистрироваться. Если регистрироваться лень - вы можете также попробовать скачать релиз по нашим партнерским ссылкам ниже.

[underverse.su].t53521.torrent
Трекер: Зарегистрирован   [ 07.04.2015 20:20 ]  

Статус: проверено (by Бишеп at 07.04.2015 20:31)
Поблагодарили: пока никто не поблагодарил...
Тип торрента: публичный - доступные источники с открытых трекеров: 
Размер: 325 MB (занимает 0,07 DVDR, для записи нужно 1 болванка DVDR/RW)
 
 
Похожие темы
Форум Тема Автор Торрент Отв. Посл. сооб.
Музыкальные DVD (Electronic) Jean Michel Jare - Aero (2004) [DVD-Audio, 5.1 DTS, 5.1 Dolby Digital (2.0-совместимый даунмикс)] 8ad_R060d
7 | 1

0 | 1526

18

19.03.2014 14:24

Зарубежная Pop Музыка (Electronic, Pop) Marian Hill - ACT ONE (The Complete Collection) (2017) [MP3, 320 kbps CBR] Darkferse
10 | 2

1 | 489

2

31.05.2017 13:55

Зарубежная Pop Музыка (Electronic, House, Dance, Pop) Madonna - Bitch I'm Madonna (The Remixes) (2015) [MP3, 320 kbps] 90ytr90
6 | 0

0 | 288

2

08.11.2016 07:41

Зарубежная Pop Музыка (Electronic, Synth-pop) a-ha - Cast In Steel [Vinyl Rip] (2015) [MP3, 320 kbps] 90ytr90
9 | 0

0 | 358

1

06.11.2016 12:26

Зарубежная Pop Музыка (Electronic, Pop, Dance) The Knocks - 55 (2016) [MP3, 320 kbps] 90ytr90
0 | 1

0 | 307

2

06.11.2016 10:41

Зарубежная Pop Музыка (Electronic Rock, Pop) Porcelain Black - Mannequin Factory (2015) [MP3, 320 kbps] 90ytr90
1 | 0

0 | 820

11

11.03.2015 20:43

Дискографии и Коллекции альбомов (Electronic, Dubstep, Drumstep) KillSonik (ex-Chasing Shadows) - Discograhpy (2 EP, Remixes WEB 2011-2013) [MP3, 320 kbps CBR] 8ad_R060d
2 | 1

0 | 1252

6

20.01.2014 10:11

Отечественный Punk, Grunge, Alternative (Electronic, Indie Rock, Post-Rock) Eimic (Everything Is Made in China) - Acquired Taste (2017) [MP3, 320 kbps CBR] Darkferse
3 | 0

0 | 337

1

29.05.2017 19:08

House (Electronica, Tech House, Indie Dance) Bag Raiders - Bag Raiders (2010) [MP3, 320 kbps] M-i-i-i-ke
10 | 1

0 | 2646

11

03.02.2011 14:59

Techno (Electronic, Acid, Electro, Experimental) Rude 66 - From Reason to Ritual (2017) [MP3, 320 kbps CBR] Darkferse
7 | 0

0 | 404

3

04.05.2017 10:01


Яндекс.Метрика powered by Sphinx


В Н И М А Н И Е
Сайт не распространяет и не хранит электронные версии произведений, а лишь бесплатно и без коммерческой выгоды (не требуя взамен платы,
SMS и т.д.) предоставляет доступ к создаваемому пользователями каталогу ссылок на торрент-файлы, которые содержат только списки хеш-сумм.
Убедительная просьба с жалобами обращаться напрямую к пользователю, разместившему торрент файл.

Вверх