Loading...
Error

Между двух огней (1-16 серии из 16) (Дмитрий Булин) [2015 г., мелодрама, SatRip]

Статистика раздачи
Размер:  9,83 GB   |    Зарегистрирован:  1 год 7 месяцев   |    Скачан:  11 раз

Полного источника не было: 7 месяцев

Сидов:  0  |  0 KB/s  ]   Личеров:  0  |  0 KB/s  ]

* - сиды/пиры с внешних источников

   
 
Автор Сообщение

nemos Пол:Муж

06-Апр-2015 17:41

Между двух огней


Год выпуска: 2015
Жанр: мелодрама
Страна: Россия
Режиссер: Дмитрий Булин
В ролях: Александр Никитин, Иван Шмаков (Миша), Мария Ильина (Настя), Елена Великанова, Юлия Зимина, Ольга Волкова, Александр Пашков, Павел Филиппов, Марго Силкина, Сергей Жарков, Дария Тюрина (Лена), Юлия Полынская
Сюжет фильма:
Рискуя своей жизнью, они каждый день идут в огонь, тушат горящие дома и спасают гибнущих в пожарах людей. Для них это вовсе не подвиг, а привычный труд. Они - бойцы пожарной охраны. Но, пока не заревел сигнал пожарной тревоги, они - такие же люди, как мы с вами. Со своими проблемами и тревогами, любовными переживаниями и семейными конфликтами.
Главный герой этой истории, командир отделения пожарной части, Алексей, оказывается «меж двух огней»: он вот-вот сделает предложение своей любимой женщине, Дарье, с которой у них уже почти сложилась хорошая крепкая семья, как вдруг к нему бесцеремонно заявляется его бывшая жена Софья. Три года назад она внезапно бросила его, разбив его любящее сердце. Алексей изо всех сил старался ее забыть, и вот, когда ему это уже почти удалось, его прежняя, не угасшая до сих пор любовь сваливается как снег ему на голову. Герой-пожарный чувствует, как земля уходит у него из-под ног: в этой ситуации ни одно решение для него совершенно не приемлемо. Но решать надо...


Качество видео: SatRip

Продолжительность: 00:45:24 серия
Формат: AVI
Видео: XviD, 720x400 , 1800 kbps
Аудио: русский, AC3 2.0, 192 kbps

Код:

D:\Фильмы\Mezhdu.dvuh.ognej.SATRip\Mezhdu.Dvuh.Ogney.01.SATRip.avi
   General
      Complete name : D:\Фильмы\Mezhdu.dvuh.ognej.SATRip\Mezhdu.Dvuh.Ogney.01.SATRip.avi
      Format : AVI
      Format/Info : Audio Video Interleave
      File size : 650 MiB
      Duration : 45mn 24s
      Overall bit rate : 2 001 Kbps
      Writing application : VirtualDubMod 1.5.10.3 | www.virtualdub-fr.org || (build 2550/release)
      Writing library : VirtualDubMod build 2550/release
   Video #0
      ID : 0
      Format : MPEG-4 Visual
      Format profile : Advanced Simple@L5
      Format settings, BVOP : 2
      Format settings, QPel : No
      Format settings, GMC : No warppoints
      Format settings, Matrix : Default (H.263)
      Codec ID : XVID
      Codec ID/Hint : XviD
      Duration : 45mn 24s
      Bit rate : 1 800 Kbps
      Width : 720 pixels
      Height : 400 pixels
      Display aspect ratio : 16:9
      Frame rate : 25.000 fps
      Color space : YUV
      Chroma subsampling : 4:2:0
      Bit depth : 8 bits
      Scan type : Progressive
      Compression mode : Lossy
      Bits/(Pixel*Frame) : 0.250
      Stream size : 585 MiB (90%)
      Writing library : XviD 1.2.1 (UTC 2008-12-04)
   Audio #1
      ID : 1
      Format : AC-3
      Format/Info : Audio Coding 3
      Mode extension : CM (complete main)
      Format settings, Endianness : Big
      Codec ID : 2000
      Duration : 45mn 24s
      Bit rate mode : Constant
      Bit rate : 192 Kbps
      Channel(s) : 2 channels
      Channel positions : Front: L R
      Sampling rate : 48.0 KHz
      Bit depth : 16 bits
      Compression mode : Lossy
      Stream size : 62.4 MiB (10%)
      Alignment : Split accross interleaves
      Interleave, duration : 40 ms (1.00 video frame)
      Interleave, preload duration : 500 ms
picpicpicpic
Для увеличения картинки щелкните мышкой по превью

Этот торрент недоступен для скачивания без регистрации, однако доступен по публичной magnet-ссылке (источники с публичных трекеров). Перед использованием ссылки прочтите, пожалуйста Пользовательское соглашение, а также как можно дольше оставайтесь на раздаче! Для того, чтобы скачать сам торрент-файл (который видит больше источников), а также для того, чтобы поблагодарить релизера, вам необходимо зарегистрироваться. Если регистрироваться лень - вы можете также попробовать скачать релиз по нашим партнерским ссылкам ниже.

[underverse.su].t53468.torrent
Трекер: Зарегистрирован   [ 06.04.2015 17:41 ]  

Статус: проверено (by nemos at 06.04.2015 17:42)
Поблагодарили: 1 человек
Тип торрента: публичный - доступные источники с открытых трекеров: 
Размер: 9,83 GB (занимает 2,24 DVDR, для записи нужно 3 болванки DVDR/RW)
 
 

Яндекс.Метрика powered by Sphinx


В Н И М А Н И Е
Сайт не распространяет и не хранит электронные версии произведений, а лишь бесплатно и без коммерческой выгоды (не требуя взамен платы,
SMS и т.д.) предоставляет доступ к создаваемому пользователями каталогу ссылок на торрент-файлы, которые содержат только списки хеш-сумм.
Убедительная просьба с жалобами обращаться напрямую к пользователю, разместившему торрент файл.

Вверх