Loading...
Error

Хоббит: Битва пяти воинств / The Hobbit: The Battle of the Five Armies (Питер Джексон) [2014 г., фэнтези, приключения, BDRip] Dub + Original + Sub (Rus,Ukr,Eng) HQ Underverse

Статистика раздачи
Размер:  2,17 GB   |    Зарегистрирован:  1 год 8 месяцев   |    Скачан:  12 раз
Сидов:  1  |  0 KB/s  ]   Личеров:  0  |  0 KB/s  ]

* - сиды/пиры с внешних источников

   
 
Автор Сообщение

HQ Underverse 

06-Апр-2015 13:53

Хоббит: Битва пяти воинств / The Hobbit: The Battle of the Five Armies


Год выпуска: 2014
Жанр: фэнтези, приключения
Страна: США
Режиссер: Питер Джексон
В ролях: Мартин Фриман, Иэн МакКеллен, Ричард Армитедж, Люк Эванс, Эванджелин Лилли, Ли Пейс, Орландо Блум, Бенедикт Камбербэтч, Кен Стотт, Эйдан Тёрнер, Грэм МакТавиш, Уильям Кирчер, Стивен Хантер, Дин О`Горман, Джеймс Несбитт, Джон Коллен, Питер Хэмблтон, Джед Брофи, Кейт Бланшетт, Хьюго Уивинг
Сюжет фильма:
Когда отряд из тринадцати гномов нанимал хоббита Бильбо Бэгинса в качестве взломщика и четырнадцатого, «счастливого», участника похода к Одинокой горе, Бильбо полагал, что его приключения закончатся, когда он выполнит свою задачу — найдет сокровище, которое так необходимо предводителю гномов Торину. Путешествие в Эребор, захваченное драконом Смаугом королевство гномов, оказалось еще более опасным, чем предполагали гномы и даже Гэндальф — мудрый волшебник, протянувший Торину и его отряду руку помощи. В погоню за гномами устремилась армия орков, ведомых пробудившимся в руинах древним злом, а эльфы и люди, с которыми Бильбо и его товарищам пришлось иметь дело во время путешествия и которые пострадали от последствий желания гномов вернуть свой дом, предъявили права на щедрое вознаграждение — часть сокровищ Одинокой горы. Скоро неподалеку от Одинокой горы встретятся пять армий, и лишь кровопролитная битва определит результаты смелого гномьего похода.

  • Мировая премьера: 1 декабря 2014
  • Российская премьера: 11 декабря 2014, «Каро-Премьер»

/
Качество видео: BDRip

Продолжительность: 02:24:28
Формат: avi
Видео: XviD, 720x304, 1753 kbps
Аудио #1: русский, дублированный [лицензия], AC3 5.1, 384 kbps
Аудио #2: английский, оригинал, AC3 5.1, 384 kbps (отдельным файлом: здесь)
Субтитры #1: внешние, SRT, русский
Субтитры #2: внешние, SRT, русский (FORCED)
Субтитры #3: внешние, SRT, украинский (FORCED)
Субтитры #4: внешние, SRT, английский

Код:

General
Complete name                    : Y:\Хоббит Битва Пяти Воинств\The.Hobbit.Battle.Of.Five.Armies.2014.BDRip.XviD.AC3.Rus.D.HQ.Underverse.avi
Format                           : AVI
Format/Info                      : Audio Video Interleave
Format profile                   : OpenDML
File size                        : 2.17 GiB
Duration                         : 2h 24mn
Overall bit rate                 : 2 149 Kbps
Writing application              : VirtualDubMod 1.5.10.3 | www.virtualdub-fr.org || (build 2550/release)
Writing library                  : VirtualDubMod build 2550/release

Video
ID                               : 0
Format                           : MPEG-4 Visual
Format profile                   : Streaming Video@L1
Format settings, BVOP            : Yes
Format settings, QPel            : No
Format settings, GMC             : No warppoints
Format settings, Matrix          : Custom
Codec ID                         : XVID
Codec ID/Hint                    : XviD
Duration                         : 2h 24mn
Bit rate                         : 1 753 Kbps
Width                            : 720 pixels
Height                           : 304 pixels
Display aspect ratio             : 2.35
Frame rate                       : 23.976 fps
Resolution                       : 24 bits
Colorimetry                      : 4:2:0
Scan type                        : Progressive
Bits/(Pixel*Frame)               : 0.334
Stream size                      : 1.77 GiB (82%)
Writing library                  : XviD 66

Audio
ID                               : 1
Format                           : AC-3
Format/Info                      : Audio Coding 3
Codec ID                         : 2000
Duration                         : 2h 24mn
Bit rate mode                    : Constant
Bit rate                         : 384 Kbps
Channel(s)                       : 6 channels
Channel positions                : Front: L C R, Surround: L R, LFE
Sampling rate                    : 48.0 KHz
Stream size                      : 397 MiB (18%)
Alignment                        : Split accross interleaves
Interleave, duration             : 42 ms (1.00 video frame)
Interleave, preload duration     : 500 ms

General
Complete name                    : Y:\Хоббит Битва Пяти Воинств\The.Hobbit.Battle.Of.Five.Armies.2014.BDRip.XviD.AC3.Rus.D.HQ.Underverse.ENG.ac3
Format                           : AC-3
Format/Info                      : Audio Coding 3
File size                        : 397 MiB
Duration                         : 2h 24mn
Overall bit rate                 : 384 Kbps

Audio
Format                           : AC-3
Format/Info                      : Audio Coding 3
Duration                         : 2h 24mn
Bit rate mode                    : Constant
Bit rate                         : 384 Kbps
Channel(s)                       : 6 channels
Channel positions                : Front: L C R, Surround: L R, LFE
Sampling rate                    : 48.0 KHz
Stream size                      : 397 MiB (100%)

Релиз группы:

picpicpic
Для увеличения картинки щелкните мышкой по превью

Этот торрент недоступен для скачивания без регистрации, однако доступен по публичной magnet-ссылке (источники с публичных трекеров). Перед использованием ссылки прочтите, пожалуйста Пользовательское соглашение, а также как можно дольше оставайтесь на раздаче! Для того, чтобы скачать сам торрент-файл (который видит больше источников), а также для того, чтобы поблагодарить релизера, вам необходимо зарегистрироваться. Если регистрироваться лень - вы можете также попробовать скачать релиз по нашим партнерским ссылкам ниже.

[underverse.su].t53466.torrent
Трекер: Зарегистрирован   [ 06.04.2015 13:53 ]  

Статус: проверено (by HQ Underverse at 06.04.2015 13:55)
Поблагодарили: 5 человек
Тип торрента: публичный - доступные источники с открытых трекеров: 
Размер: 2,17 GB (занимает 1/2 DVDR, для записи нужно 1 болванка DVDR/RW)
 
 
Похожие темы
Форум Тема Автор Торрент Отв. Посл. сооб.
Зарубежное кино [DVDRip, Low-Res HDRip, и т.д.] Хоббит: Битва пяти воинств / The Hobbit: The Battle of the Five Armies (Питер Джексон / Peter Jackson) [2014 г., фэнтези, приключения, BDRip-AVC] Dub + Sub (Rus) 90ytr90
3 | 0

0 | 696

16

21.03.2015 15:42

Зарубежное кино [DVDRip, Low-Res HDRip, и т.д.] Хоббит: Битва пяти воинств / The Hobbit: The Battle of the Five Armies (Питер Джексон / Peter Jackson) [2014 г., фэнтези, приключения, BDRip-AVC] Rus + Ukr + Original (Eng) + Sub (Rus, Eng) 90ytr90
0 | 0

0 | 683

4

21.03.2015 16:32

Зарубежное кино [DVDRip, Low-Res HDRip, и т.д.] Хоббит: Битва пяти воинств / The Hobbit: The Battle of the Five Armies (Питер Джексон / Peter Jackson) [2014 г., фэнтези, приключения, BDRip] Dub + Original (Eng) + Subs 90ytr90
3 | 0

0 | 933

23

21.03.2015 16:43

Зарубежное кино [DVDRip, Low-Res HDRip, и т.д.] Хоббит: Битва пяти воинств / The Hobbit: The Battle of the Five Armies (Питер Джексон / Peter Jackson) [2014 г., фэнтези, приключения, BDRip-AVC] Rus + Original (Eng) + Subs 90ytr90
0 | 0

0 | 783

18

21.03.2015 17:07

Зарубежное кино [DVDRip, Low-Res HDRip, и т.д.] Хоббит: Битва пяти воинств / The Hobbit: The Battle of the Five Armies (Питер Джексон / Peter Jackson) [2014 г., фэнтези, приключения, BDRip] Dub + hardsub 90ytr90
3 | 0

0 | 882

42

22.03.2015 14:57

Зарубежное кино [HDDVDRip / BDRip / WEB-DL / HDTV 1080/720р] Хоббит: Битва пяти воинств / The Hobbit: The Battle of the Five Armies (Питер Джексон / Peter Jackson) [2014 г., фэнтези, приключения, BDRip 720p] Rus + Ukr + Original (Eng) + Subs 90ytr90
2 | 0

0 | 737

12

21.03.2015 17:24

Зарубежное кино [HDDVDRip / BDRip / WEB-DL / HDTV 1080/720р] Хоббит: Битва пяти воинств / The Hobbit: The Battle of the Five Armies (Питер Джексон / Peter Jackson) [2014 г., фэнтези, приключения, BDRip 720p] Dub + Subs 90ytr90
11 | 0

0 | 1017

48

22.03.2015 12:14

Зарубежное кино [HDDVDRip / BDRip / WEB-DL / HDTV 1080/720р] Хоббит: Битва пяти воинств / The Hobbit: The Battle of the Five Armies (Питер Джексон / Peter Jackson) [2014 г., фэнтези, приключения, BDRip 1080p] Dub + Original (Eng) + Subs 90ytr90
16 | 0

0 | 983

36

22.03.2015 12:31

Зарубежное кино [HDDVDRip / BDRip / WEB-DL / HDTV 1080/720р] Хоббит: Битва пяти воинств / The Hobbit: The Battle of the Five Armies (Питер Джексон) [2014 г., фэнтези, приключения, BDRip 1080р] Dub (Rus,Ukr) + Original + Sub Паукан
0 | 0

0 | 769

40

31.03.2015 13:43

Зарубежное кино [HDDVDRip / BDRip / WEB-DL / HDTV 1080/720р] Хоббит: Битва пяти воинств 3D / The Hobbit: The Battle of the Five Armies 3D (Питер Джексон) [2014 г., фэнтези, приключения, BDRip 1080p, Crop Half OverUnder] Dub + Original makkol
6 | 0

0 | 568

5

03.11.2015 13:46


Яндекс.Метрика powered by Sphinx


В Н И М А Н И Е
Сайт не распространяет и не хранит электронные версии произведений, а лишь бесплатно и без коммерческой выгоды (не требуя взамен платы,
SMS и т.д.) предоставляет доступ к создаваемому пользователями каталогу ссылок на торрент-файлы, которые содержат только списки хеш-сумм.
Убедительная просьба с жалобами обращаться напрямую к пользователю, разместившему торрент файл.

Вверх