Loading...
Error

Советский Союз: Двадцать лет со дня гибели партии и государства (3 часть) [2014 г., документальный, HDTVRip]

Статистика раздачи
Размер:  657 MB   |    Зарегистрирован:  1 год 7 месяцев   |    Скачан:  53 раза
Сидов:  2  |  0 KB/s  ]   Личеров:  0  |  0 KB/s  ]

* - сиды/пиры с внешних источников

   
 
Автор Сообщение

матроскин Пол:Муж

05-Апр-2015 08:51

Советский Союз: Двадцать лет со дня гибели партии и государства (3 часть)


Год выпуска: 2014
Жанр: документальный
Страна: Россия
Выпущено: Красное Тв, КНР Тв
Сюжет фильма:
Люди сегодня не всё знают как реформаторы(в связке с западными партнёрами) справлялись тогда с теми кто не желал развала страны.
Сучий запад как вирус, влез в наш организм и разъедает его потихоньку поколение за поколением. Внедряя в сознание нашего общества такую парадигму при которой русский мир шаг за шагом вырождается.
Качество видео: HDTVRip

Продолжительность: 00:25:58
Формат: avi
Видео: DivX 4, 854x480, 3269 kbps
Аудио: русский, одноголосый закадровый [профессиональный], MP3 2.0, 256 kbps

Код:

General
Complete name                    : C:\Users\Ohrana\Desktop\sovetskiy_soyuz_20_let_3 cast.avi
Format                           : AVI
Format/Info                      : Audio Video Interleave
File size                        : 657 MiB
Duration                         : 25mn 58s
Overall bit rate                 : 3 538 Kbps
Writing application              : Lavf52.93.0

Video
ID                               : 0
Format                           : MPEG-4 Visual
Format profile                   : Simple@L1
Format settings, BVOP            : No
Format settings, QPel            : No
Format settings, GMC             : No warppoints
Format settings, Matrix          : Default (H.263)
Codec ID                         : DIVX
Codec ID/Info                    : Project Mayo
Codec ID/Hint                    : DivX 4
Duration                         : 25mn 58s
Bit rate                         : 3 270 Kbps
Width                            : 854 pixels
Height                           : 480 pixels
Display aspect ratio             : 16/9
Frame rate                       : 25.000 fps
Resolution                       : 24 bits
Colorimetry                      : 4:2:0
Scan type                        : Progressive
Bits/(Pixel*Frame)               : 0.319
Stream size                      : 608 MiB (92%)
Writing library                  : Lavc52.108.0

Audio
ID                               : 1
Format                           : MPEG Audio
Format version                   : Version 1
Format profile                   : Layer 3
Codec ID                         : 55
Codec ID/Hint                    : MP3
Duration                         : 25mn 58s
Bit rate mode                    : Constant
Bit rate                         : 256 Kbps
Channel(s)                       : 2 channels
Sampling rate                    : 44.1 KHz
Resolution                       : 16 bits
Stream size                      : 47.6 MiB (7%)
Alignment                        : Aligned on interleaves
Interleave, duration             : 26 ms (0.65 video frame)
Interleave, preload duration     : 52 ms
Writing library                  : LAME3.98.4

picpicpicpicpicpic
Для увеличения картинки щелкните мышкой по превью

Этот торрент недоступен для скачивания без регистрации, однако доступен по публичной magnet-ссылке (источники с публичных трекеров). Перед использованием ссылки прочтите, пожалуйста Пользовательское соглашение, а также как можно дольше оставайтесь на раздаче! Для того, чтобы скачать сам торрент-файл (который видит больше источников), а также для того, чтобы поблагодарить релизера, вам необходимо зарегистрироваться. Если регистрироваться лень - вы можете также попробовать скачать релиз по нашим партнерским ссылкам ниже.

[underverse.su].t53430.torrent
Трекер: Зарегистрирован   [ 05.04.2015 08:51 ]  

Статус: проверено (by матроскин at 05.04.2015 08:52)
Поблагодарили: 4 человека
Тип торрента: публичный - доступные источники с открытых трекеров: 
Размер: 657 MB (занимает 0,15 DVDR, для записи нужно 1 болванка DVDR/RW)
 
 
Похожие темы
Форум Тема Автор Торрент Отв. Посл. сооб.
Исторические фильмы Советский Союз: Двадцать лет со дня гибели партии и государства ( 1 часть ) [2014 г., документальный, HDTVRip] матроскин
1 | 0

2 | 761

71

30.03.2015 19:36

Исторические фильмы Советский Союз: Двадцать лет со дня гибели партии и государства (2 часть) [2014 г., документальный, HDTVRip] матроскин
2 | 0

2 | 1027

67

02.04.2015 11:22

Исторические фильмы Советский Союз: Двадцать лет со дня гибели партии и государства (4 часть) [2014 г., документальный, HDTVRip] матроскин
1 | 0

1 | 662

52

05.04.2015 09:17

Исторические фильмы Советский Союз: Двадцать лет со дня гибели партии и государства (5 часть) [2014 г., документальный, HDTVRip] матроскин
1 | 0

1 | 723

40

08.04.2015 08:07

Исторические фильмы Советский Союз: Двадцать лет со дня гибели партии и государства (6 часть) [2014 г., документальный, HDTVRip] матроскин
1 | 0

3 | 818

43

08.04.2015 17:05

матроскин Пол:Муж

05-Апр-2015 08:57

Качайте и смотрите документальные фильмы!

.


Я есть гарант капиталистов,
Я их лелею и люблю:
Одной рукой кормлю фашистов,
Другой гуманитарку шлю.


Александ Харчиков

Яндекс.Метрика powered by Sphinx


В Н И М А Н И Е
Сайт не распространяет и не хранит электронные версии произведений, а лишь бесплатно и без коммерческой выгоды (не требуя взамен платы,
SMS и т.д.) предоставляет доступ к создаваемому пользователями каталогу ссылок на торрент-файлы, которые содержат только списки хеш-сумм.
Убедительная просьба с жалобами обращаться напрямую к пользователю, разместившему торрент файл.

Вверх