Loading...
Error

Духless 2 (Роман Прыгунов) [2015 г., Драма, DVDRip] Original + Original

Статистика раздачи
Размер:  5,3 GB   |    Зарегистрирован:  2 года 7 месяцев   |    Скачан:  187 раз
Сидов:  1  |  0 KB/s  ]   Личеров:  0  |  0 KB/s  ]

* - сиды/пиры с внешних источников

   
 
Автор Сообщение

romeoexpert Пол:Муж

03-Апр-2015 20:49

Духless 2


Год выпуска: 2015
Жанр: Драма
Страна: Россия
Режиссер: Роман Прыгунов
В ролях: Данила Козловский,Мария Андреева,Милош Бикович,Павел Ворожцов,Александра Бортич,Кристина Бабушкина,Сергей Бурунов,Лев Прыгунов,Владимир Симонов,Доминик Пинон
Сюжет фильма:
Он отказался от всего, что так когда-то ценил — светской жизни, успешной карьеры, роскошного пентхауса. Теперь его стихия — океан. Каждый день он рассекает на серфе теплые волны, омывающие остров Бали. Но невозможно забыть ритм большого города. Случайное знакомство возвращает его в самое сердце современной столицы — высокие технологии, сумасшедшие сделки, смертельный риск и прежняя любовь, которая больше не с ним.

  • Мировая премьера: 5 марта 2015
  • Российская премьера: 5 марта 2015


Качество видео: DVDRip

Продолжительность: 01:47:03
Формат: MKV
Видео: MPEG 2 DVD, 720x576, 5738 kbps
Аудио #1: русский, оригинал, DTS 5.1, 755 kbps
Аудио #2: русский, оригинал, AC3 5.1, 448 kbps

Код:

General
Unique ID                   : 176308123422727216766085283176701021935 (0x84A3B59D75064E30BA84D6EB07CCCEEF)
Complete name               : O:\Video\dAxLAs.2.2015.DVD9\dAxLAs.2.2015.DVD9.Title2.mkv
Format                      : Matroska
Format version              : Version 2
File size                   : 5.30 GiB
Duration                    : 1h 47mn
Overall bit rate mode       : Variable
Overall bit rate            : 7 082 Kbps
Movie name                  : dAxLAs.2.2015.DVD9.Title2
Encoded date                : UTC 2015-04-03 19:50:34
Writing application         : DVDFab
Writing library             : libebml v0.7.8 + libmatroska v0.8.1

Video
ID                          : 1
Format                      : MPEG Video
Format version              : Version 2
Format profile              : Main@Main
Format settings, BVOP       : Yes
Format settings, Matrix     : Custom
Format settings, GOP        : M=3, N=12
Codec ID                    : V_MPEG2
Codec ID/Info               : MPEG 1 or 2 Video
Duration                    : 1h 47mn
Bit rate mode               : Variable
Bit rate                    : 5 738 Kbps
Maximum bit rate            : 8 500 Kbps
Width                       : 720 pixels
Height                      : 576 pixels
Display aspect ratio        : 16:9
Frame rate mode             : Constant
Frame rate                  : 25.000 fps
Standard                    : PAL
Color space                 : YUV
Chroma subsampling          : 4:2:0
Bit depth                   : 8 bits
Scan type                   : Progressive
Compression mode            : Lossy
Bits/(Pixel*Frame)          : 0.553
Time code of first frame    : 01:00:00:00
Time code source            : Group of pictures header
GOP, Open/Closed            : Open
Stream size                 : 4.29 GiB (81%)
Default                     : Yes
Forced                      : No
GOP, Open/Closed of first f : Closed

Audio #1
ID                          : 2
Format                      : DTS
Format/Info                 : Digital Theater Systems
Mode                        : 16
Format settings, Endianness : Big
Codec ID                    : A_DTS
Duration                    : 1h 47mn
Bit rate mode               : Constant
Bit rate                    : 755 Kbps
Channel(s)                  : 6 channels
Channel positions           : Front: L C R, Side: L R, LFE
Sampling rate               : 48.0 KHz
Bit depth                   : 24 bits
Compression mode            : Lossy
Stream size                 : 578 MiB (11%)
Language                    : Russian
Default                     : Yes
Forced                      : No

Audio #2
ID                          : 3
Format                      : AC-3
Format/Info                 : Audio Coding 3
Mode extension              : CM (complete main)
Format settings, Endianness : Big
Codec ID                    : A_AC3
Duration                    : 1h 47mn
Bit rate mode               : Constant
Bit rate                    : 448 Kbps
Channel(s)                  : 6 channels
Channel positions           : Front: L C R, Side: L R, LFE
Sampling rate               : 48.0 KHz
Bit depth                   : 16 bits
Compression mode            : Lossy
Stream size                 : 343 MiB (6%)
Language                    : Russian
Default                     : No
Forced                      : No

Menu
00:10:23.000                : en:(01)00:10:23:000
00:21:29.000                : en:(02)00:21:29:000
00:27:32.000                : en:(03)00:27:32:000
00:34:22.000                : en:(04)00:34:22:000
00:45:07.000                : en:(05)00:45:07:000
00:52:59.000                : en:(06)00:52:59:000
01:02:39.000                : en:(07)01:02:39:000
01:12:45.000                : en:(08)01:12:45:000
01:20:03.000                : en:(09)01:20:03:000
01:28:24.000                : en:(10)01:28:24:000
01:39:13.000                : en:(11)01:39:13:000
01:46:58.000                : en:(12)01:46:58:000

picpicpicpicpicpicpicpicpic
Для увеличения картинки щелкните мышкой по превью

Этот торрент недоступен для скачивания без регистрации, однако доступен по публичной magnet-ссылке (источники с публичных трекеров). Перед использованием ссылки прочтите, пожалуйста Пользовательское соглашение, а также как можно дольше оставайтесь на раздаче! Для того, чтобы скачать сам торрент-файл (который видит больше источников), а также для того, чтобы поблагодарить релизера, вам необходимо зарегистрироваться. Если регистрироваться лень - вы можете также попробовать скачать релиз по нашим партнерским ссылкам ниже.

[underverse.su].t53418.torrent
Трекер: Зарегистрирован   [ 03.04.2015 20:49 ]  

Статус: проверено (by Паукан at 14.04.2015 04:54)
Поблагодарили: 6 человек
Тип торрента: публичный - доступные источники с открытых трекеров: 
Размер: 5,3 GB (занимает 1,21 DVDR, для записи нужно 2 болванки DVDR/RW)
 
 
Похожие темы
Форум Тема Автор Торрент Отв. Посл. сооб.
T Закрытые релизы Духless 2 (Роман Прыгунов) [2015 г., драма, DVDScr] Dub 90ytr90
1252 | 60

1 | 258

59

05.03.2015 13:20

romeoexpert Пол:Муж

10-Апр-2015 14:03

Скачан: 54 раза Статус: * не проверено. Странно это, при условии, что зарегистрирован 6 дней назад.

Яндекс.Метрика powered by Sphinx


В Н И М А Н И Е
Сайт не распространяет и не хранит электронные версии произведений, а лишь бесплатно и без коммерческой выгоды (не требуя взамен платы,
SMS и т.д.) предоставляет доступ к создаваемому пользователями каталогу ссылок на торрент-файлы, которые содержат только списки хеш-сумм.
Убедительная просьба с жалобами обращаться напрямую к пользователю, разместившему торрент файл.

Вверх