Loading...
Error

Час сыча (1-4 серии из 4) (Владимир Янковский) [2015 г., детектив, SatRip]

Статистика раздачи
Размер:  2,11 GB   |    Зарегистрирован:  1 год 7 месяцев   |    Скачан:  38 раз

Полного источника не было: 1 день 8 часов

Сидов:  0  |  0 KB/s  ]   Личеров:  0  |  0 KB/s  ]

* - сиды/пиры с внешних источников

   
 
Автор Сообщение

nemos Пол:Муж

03-Апр-2015 18:21

Час сыча


Год выпуска: 3 апреля 2015
Жанр: детектив
Страна: Россия
Режиссер: Владимир Янковский
В ролях: Евгений Сидихин (Алексей Сычёв), Александр Самойленко, Александр Назаров, Елена Валюшкина, Сергей Подольный (Сычев в молодости)

Сюжет фильма:
В небольшом приморском городе живут трое закадычных друзей: главврач местной больницы Алексей Сычёв, начальник полиции города полковник Пётр Губенко и Тимур Исхаков - главврач местной здравницы - санатория «Черноморец». На первый взгляд, жизнь Алексея Сычева удалась - у него есть любимая жена-красавица Зинаида, любимая работа, замечательные друзья. Вот только сын Василий - головная боль отца. Раньше Василий служил в Москве в Наркоконтроле. Он вышел на канал поставки наркотиков, но его подставили. С работы его выгнали за систематические прогулы и пьянки, которых на самом деле не было. Параллельно он расстается с женой, от которой у него есть дочь, и возвращается в родной город, где устраивается на службу в ДПС.


Качество видео: SatRip

Продолжительность: 00:43:45 серия
Формат: AVI
Видео: XviD, 720x400, 1 557 kbps
Аудио: русский, AC3 2.0, 192 kbps

Код:

E:\Фильмы-1\Tchas.sycha.2015.SATRip.Files-x\04.Tchas.sycha.2015.SATRip.Files-x.avi
   General
      Complete name : E:\Фильмы-1\Tchas.sycha.2015.SATRip.Files-x\04.Tchas.sycha.2015.SATRip.Files-x.avi
      Format : AVI
      Format/Info : Audio Video Interleave
      File size : 550 MiB
      Duration : 43mn 45s
      Overall bit rate : 1 758 Kbps
      Writing application : VirtualDubMod 1.5.10.2 (build 2542/release)
      Writing library : VirtualDubMod build 2542/release
   Video #0
      ID : 0
      Format : MPEG-4 Visual
      Format profile : Advanced Simple@L5
      Format settings, BVOP : 1
      Format settings, QPel : No
      Format settings, GMC : No warppoints
      Format settings, Matrix : Custom
      Codec ID : XVID
      Codec ID/Hint : XviD
      Duration : 43mn 45s
      Bit rate : 1 557 Kbps
      Width : 720 pixels
      Height : 400 pixels
      Display aspect ratio : 16:9
      Frame rate : 25.000 fps
      Color space : YUV
      Chroma subsampling : 4:2:0
      Bit depth : 8 bits
      Scan type : Progressive
      Compression mode : Lossy
      Bits/(Pixel*Frame) : 0.216
      Stream size : 487 MiB (89%)
      Writing library : XviD 73
   Audio #1
      ID : 1
      Format : AC-3
      Format/Info : Audio Coding 3
      Mode extension : CM (complete main)
      Format settings, Endianness : Big
      Codec ID : 2000
      Duration : 43mn 45s
      Bit rate mode : Constant
      Bit rate : 192 Kbps
      Channel(s) : 2 channels
      Channel positions : Front: L R
      Sampling rate : 48.0 KHz
      Bit depth : 16 bits
      Compression mode : Lossy
      Stream size : 60.1 MiB (11%)
      Alignment : Split accross interleaves
      Interleave, duration : 40 ms (1.00 video frame)
      Interleave, preload duration : 500 ms
picpicpicpicpicpicpicpic
Для увеличения картинки щелкните мышкой по превью

Этот торрент недоступен для скачивания без регистрации, однако доступен по публичной magnet-ссылке (источники с публичных трекеров). Перед использованием ссылки прочтите, пожалуйста Пользовательское соглашение, а также как можно дольше оставайтесь на раздаче! Для того, чтобы скачать сам торрент-файл (который видит больше источников), а также для того, чтобы поблагодарить релизера, вам необходимо зарегистрироваться. Если регистрироваться лень - вы можете также попробовать скачать релиз по нашим партнерским ссылкам ниже.

[underverse.su].t53415.torrent
Трекер: Зарегистрирован   [ 03.04.2015 18:21 ]  

Статус: проверено (by nemos at 03.04.2015 18:21)
Поблагодарили: 4 человека
Тип торрента: публичный - доступные источники с открытых трекеров: 
Размер: 2,11 GB (занимает 0,48 DVDR, для записи нужно 1 болванка DVDR/RW)
 
 
Похожие темы
Форум Тема Автор Торрент Отв. Посл. сооб.
# xUSSR сериалы [BD / Remux / BDRip / WEB-DL / HDTV 1080/720р] Час сыча (4 серии из 4) (Владимир Янковский) [2015 г., детектив, HDTV 1080i] nemos
5 | 0

0 | 783

10

04.04.2015 10:04


Яндекс.Метрика powered by Sphinx


В Н И М А Н И Е
Сайт не распространяет и не хранит электронные версии произведений, а лишь бесплатно и без коммерческой выгоды (не требуя взамен платы,
SMS и т.д.) предоставляет доступ к создаваемому пользователями каталогу ссылок на торрент-файлы, которые содержат только списки хеш-сумм.
Убедительная просьба с жалобами обращаться напрямую к пользователю, разместившему торрент файл.

Вверх