Loading...
Error

Советский Союз: Двадцать лет со дня гибели партии и государства (2 часть) [2014 г., документальный, HDTVRip]

Статистика раздачи
Размер:  643 MB   |    Зарегистрирован:  1 год 8 месяцев   |    Скачан:  67 раз
Сидов:  3  |  0 KB/s  ]   Личеров:  0  |  0 KB/s  ]

* - сиды/пиры с внешних источников

   
 
Автор Сообщение

матроскин Пол:Муж

02-Апр-2015 10:19

Советский Союз: Двадцать лет со дня гибели партии и государства (2 часть)


Год выпуска: 2014
Жанр: документальный
Страна: Россия
Выпущено: Красное Тв, КНР Тв
Сюжет фильма:
В фильме говорится о предательстве части партийной элиты в отношении Советского народа. Последователи тех предателей и сейчас у власти... мало того. Они и сейчас продолжают тот курс на полное уничтожение нашего государства. Нынешняя власть, представляющей из себя олигархический клан, действующий по указке из Вашингтона.
Качество видео: HDTVRip

Продолжительность: 00:27:40
Формат: avi
Видео: DivX 4, 854x480, 2978 kbps
Аудио: русский, одноголосый закадровый [профессиональный], MP3 2.0, 256 kbps

Код:

General
Complete name                    : C:\Users\Ohrana\Desktop\sovetskiy_soyuz_20_let_2 Chast.avi
Format                           : AVI
Format/Info                      : Audio Video Interleave
File size                        : 643 MiB
Duration                         : 27mn 40s
Overall bit rate                 : 3 247 Kbps
Writing application              : Lavf52.93.0

Video
ID                               : 0
Format                           : MPEG-4 Visual
Format profile                   : Simple@L1
Format settings, BVOP            : No
Format settings, QPel            : No
Format settings, GMC             : No warppoints
Format settings, Matrix          : Default (H.263)
Codec ID                         : DIVX
Codec ID/Info                    : Project Mayo
Codec ID/Hint                    : DivX 4
Duration                         : 27mn 40s
Bit rate                         : 2 979 Kbps
Width                            : 854 pixels
Height                           : 480 pixels
Display aspect ratio             : 16/9
Frame rate                       : 25.000 fps
Resolution                       : 24 bits
Colorimetry                      : 4:2:0
Scan type                        : Progressive
Bits/(Pixel*Frame)               : 0.291
Stream size                      : 590 MiB (92%)
Writing library                  : Lavc52.108.0

Audio
ID                               : 1
Format                           : MPEG Audio
Format version                   : Version 1
Format profile                   : Layer 3
Codec ID                         : 55
Codec ID/Hint                    : MP3
Duration                         : 27mn 40s
Bit rate mode                    : Constant
Bit rate                         : 256 Kbps
Channel(s)                       : 2 channels
Sampling rate                    : 44.1 KHz
Resolution                       : 16 bits
Stream size                      : 50.7 MiB (8%)
Alignment                        : Aligned on interleaves
Interleave, duration             : 26 ms (0.65 video frame)
Interleave, preload duration     : 52 ms
Writing library                  : LAME3.98.4

picpicpicpicpicpic
Для увеличения картинки щелкните мышкой по превью

Этот торрент недоступен для скачивания без регистрации, однако доступен по публичной magnet-ссылке (источники с публичных трекеров). Перед использованием ссылки прочтите, пожалуйста Пользовательское соглашение, а также как можно дольше оставайтесь на раздаче! Для того, чтобы скачать сам торрент-файл (который видит больше источников), а также для того, чтобы поблагодарить релизера, вам необходимо зарегистрироваться. Если регистрироваться лень - вы можете также попробовать скачать релиз по нашим партнерским ссылкам ниже.

[underverse.su].t53345.torrent
Трекер: Зарегистрирован   [ 02.04.2015 10:19 ]  

Статус: проверено (by матроскин at 02.04.2015 10:19)
Поблагодарили: 5 человек
Тип торрента: публичный - доступные источники с открытых трекеров: 
Размер: 643 MB (занимает 0,14 DVDR, для записи нужно 1 болванка DVDR/RW)
 
 
Похожие темы
Форум Тема Автор Торрент Отв. Посл. сооб.
Исторические фильмы Советский Союз: Двадцать лет со дня гибели партии и государства ( 1 часть ) [2014 г., документальный, HDTVRip] матроскин
2 | 0

2 | 761

71

30.03.2015 19:36

Исторические фильмы Советский Союз: Двадцать лет со дня гибели партии и государства (3 часть) [2014 г., документальный, HDTVRip] матроскин
3 | 0

1 | 706

53

05.04.2015 08:57

Исторические фильмы Советский Союз: Двадцать лет со дня гибели партии и государства (4 часть) [2014 г., документальный, HDTVRip] матроскин
2 | 0

1 | 663

52

05.04.2015 09:17

Исторические фильмы Советский Союз: Двадцать лет со дня гибели партии и государства (5 часть) [2014 г., документальный, HDTVRip] матроскин
2 | 0

1 | 724

40

08.04.2015 08:07

Исторические фильмы Советский Союз: Двадцать лет со дня гибели партии и государства (6 часть) [2014 г., документальный, HDTVRip] матроскин
2 | 0

3 | 820

43

08.04.2015 17:05

матроскин Пол:Муж

02-Апр-2015 10:20



матроскин Пол:Муж

02-Апр-2015 11:22


Яндекс.Метрика powered by Sphinx


В Н И М А Н И Е
Сайт не распространяет и не хранит электронные версии произведений, а лишь бесплатно и без коммерческой выгоды (не требуя взамен платы,
SMS и т.д.) предоставляет доступ к создаваемому пользователями каталогу ссылок на торрент-файлы, которые содержат только списки хеш-сумм.
Убедительная просьба с жалобами обращаться напрямую к пользователю, разместившему торрент файл.

Вверх