Loading...
Error

Пришельцы / Extraterrestrial (Колин Минихан) [2014 г., ужасы, фантастика, HDRip] MVO [ViruseProject]

Статистика раздачи
Размер:  745 MB   |    Зарегистрирован:  1 год 9 месяцев   |    Скачан:  35 раз

Полного источника не было: 6 месяцев

Сидов:  0  |  0 KB/s  ]   Личеров:  0  |  0 KB/s  ]

* - сиды/пиры с внешних источников

   
 
Автор Сообщение

Паукан Пол:Муж

31-Мар-2015 14:08

Пришельцы / Extraterrestrial


Название: Пришельцы (Посетители)
Оригинальное название: Extraterrestrial
Год выхода: 2014
Жанр: Ужасы, фантастика
Режиссер: Колин Минихан
В фильме снимались: Бриттани Аллен, Фредди Строма, Мелани Папалиа, Джесси Мосс, Аня Савчич, Шон Роджерсон, Эмили Перкинс, Майк Ковач, Йен Браун, Фред Китинг

Описание:
Человечество давно подозревает, что не одиноко во Вселенной. Загадочные вспышки в ночном небе, летательные аппараты явно неземного происхождения, таинственные исчезновения людей — это ли не свидетельства существования иного разума? Многие с нетерпением ждут встречи с представителями внеземной цивилизации. А вдруг они давно уже здесь? И по соглашению с правительством используют Землю как большой полигон для научных экспериментов? Тогда главное — не вмешиваться.



Страна: Канада
Студия: Abduction Films , Manis Film, Pink Buffalo Films, Twin Engine Films, Vicarious Entertainment
Продолжительность: 01:40:29
Перевод: Любительское (многоголосое) [ViruseProject]

Кодек: AVI (XviD)
Качество: HDRip (Исх. BDRip 720p)
Видео: 688x288 (2.39:1), 23.976 fps, XviD build 73 ~900 kbps avg, 0.19 bit/pixel
Звук: 48 kHz, MPEG Layer 3, 2 ch, ~128.00 kbps avg
Субтитры: нет

Семпл
Общее
Полное имя : Пришельцы (Посетители). 2014. HDRip. 745 (AleksSin).avi
Формат : AVI
Формат/Информация : Audio Video Interleave
Размер файла : 745 Мбайт
Продолжительность : 1 ч. 40 м.
Общий поток : 1037 Кбит/сек
Программа кодирования : VirtualDubMod 1.5.10.3 | www.virtualdub-fr.org || (build 2550/release)
Библиотека кодирования : VirtualDubMod build 2550/release

Видео
Идентификатор : 0
Формат : MPEG-4 Visual
Профиль формата : Advanced Simple@L5
Параметр BVOP формата : 1
Параметр QPel формата : Нет
Параметр GMC формата : Без точки перехода
Параметр матрицы формата : Выборочная
Идентификатор кодека : XVID
Идентификатор кодека/Подсказка : XviD
Продолжительность : 1 ч. 40 м.
Битрейт : 900 Кбит/сек
Ширина : 688 пикс.
Высота : 288 пикс.
Соотношение сторон : 2,40:1
Частота кадров : 23,976 кадр/сек
Цветовое пространство : YUV
Подвыборка цветности : 4:2:0
Битовая глубина : 8 бит
Тип развёртки : Прогрессивная
Метод сжатия : С потерями
Бит/(Пиксели*Кадры) : 0.189
Размер потока : 647 Мбайт (87%)
Библиотека кодирования : XviD 73

Аудио
Идентификатор : 1
Формат : MPEG Audio
Версия формата : Version 1
Профиль формата : Layer 3
Идентификатор кодека : 55
Идентификатор кодека/Подсказка : MP3
Продолжительность : 1 ч. 40 м.
Вид битрейта : Постоянный
Битрейт : 128 Кбит/сек
Каналы : 2 канала
Частота : 48,0 КГц
Метод сжатия : С потерями
Размер потока : 92,0 Мбайт (12%)
Выравнивание : Соединение по промежуткам
Продолжительность промежутка : 42 мс. (1,00 видеокадр)
Время предзагрузки промежутка : 504 ms
Библиотека кодирования : LAME3.99r
Настройки программы : -m s -V 4 -q 2 -lowpass 17 -b 128
pic pic pic
Для увеличения картинки щелкните мышкой по превью

Этот торрент недоступен для скачивания без регистрации, однако доступен по публичной magnet-ссылке (источники с публичных трекеров). Перед использованием ссылки прочтите, пожалуйста Пользовательское соглашение, а также как можно дольше оставайтесь на раздаче! Для того, чтобы скачать сам торрент-файл (который видит больше источников), а также для того, чтобы поблагодарить релизера, вам необходимо зарегистрироваться. Если регистрироваться лень - вы можете также попробовать скачать релиз по нашим партнерским ссылкам ниже.

[underverse.su].t53287.torrent
Трекер: Зарегистрирован   [ 31.03.2015 14:08 ]  

Статус: проверено (by Паукан at 31.03.2015 14:08)
Поблагодарили: 3 человека
Тип торрента: публичный - доступные источники с открытых трекеров: 
Размер: 745 MB (занимает 0,17 DVDR, для записи нужно 1 болванка DVDR/RW)
 
 
Похожие темы
Форум Тема Автор Торрент Отв. Посл. сооб.
Зарубежное кино [DVDRip, Low-Res HDRip, и т.д.] Пришельцы 3: Взятие Бастилии / Les Visiteurs: La Revolution (Жан-Мари Пуаре) [2016 г., комедия, HDRip] Dub 90ytr90
23 | 1

0 | 317

1

21.12.2016 17:45

Зарубежное кино [DVDRip, Low-Res HDRip, и т.д.] Пришельцы 3: Взятие Бастилии / Les Visiteurs: La Revolution (Жан-Мари Пуаре) [2016 г., комедия, HDRip] Dub 90ytr90
131 | 2

0 | 321

6

21.12.2016 17:42

T Зарубежное кино [DVDRip, Low-Res HDRip, и т.д.] Пришельцы / Extraterrestrial (Колин Минихан) [2014 г., Ужасы, Фантастика, WEB-DLRip] VO (RUS, datynet) Ведьмочка
1 | 0

0 | 773

27

22.10.2014 23:01

T Зарубежное кино [DVDRip, Low-Res HDRip, и т.д.] Пришельцы / Extraterrestrial (Колин Минихан) [2014 г., Ужасы, Фантастика, WEB-DLRip-AVC] VO (RUS, datynet) Ведьмочка
0 | 0

0 | 952

51

23.10.2014 13:13

T Зарубежное кино [DVDRip, Low-Res HDRip, и т.д.] Пришельцы 3: Взятие Бастилии / Les Visiteurs: La Revolution (Жан-Мари Пуаре) [2016 г., комедия, HDRip] Dub (чистый звук) 90ytr90
80 | 1

0 | 455

14

06.09.2016 15:34

T Зарубежное кино [DVDRip, Low-Res HDRip, и т.д.] Пришельцы 3: Взятие Бастилии / Les Visiteurs: La Revolution (Жан-Мари Пуаре) [2016 г., комедия, HDRip] Dub (iTunes) 90ytr90
150 | 2

0 | 385

19

14.09.2016 16:33

T Зарубежное кино [DVDRip, Low-Res HDRip, и т.д.] Пришельцы 3: Взятие Бастилии / Les Visiteurs: La Revolution (Жан-Мари Пуаре) [2016 г., комедия, WEBRip] Dub (звук с TS) + Original makkol
147 | 3

0 | 747

32

05.08.2016 11:23

Зарубежное кино [DVDRip, Low-Res HDRip, и т.д.] Пришельцы 3: Взятие Бастилии / Les Visiteurs: La Revolution (Жан-Мари Пуаре) [2016 г., комедия, HDRip] MVO makkol
94 | 0

0 | 434

34

08.08.2016 10:51

Зарубежное кино [HDDVDRip / BDRip / WEB-DL / HDTV 1080/720р] Пришельцы 3: Взятие Бастилии / Les Visiteurs: La Revolution (Жан-Мари Пуаре) [2016 г., комедия, BDRip 1080p] Dub + Original (Fre) 90ytr90
38 | 11

0 | 92

2

21.12.2016 17:52

Зарубежное кино [HDDVDRip / BDRip / WEB-DL / HDTV 1080/720р] Пришельцы 3: Взятие Бастилии / Les Visiteurs: La Revolution (Жан-Мари Пуаре) [2016 г., комедия, BDRip 720p] Dub + Original (Fre) 90ytr90
56 | 9

0 | 100

4

21.12.2016 17:49


Яндекс.Метрика powered by Sphinx


В Н И М А Н И Е
Сайт не распространяет и не хранит электронные версии произведений, а лишь бесплатно и без коммерческой выгоды (не требуя взамен платы,
SMS и т.д.) предоставляет доступ к создаваемому пользователями каталогу ссылок на торрент-файлы, которые содержат только списки хеш-сумм.
Убедительная просьба с жалобами обращаться напрямую к пользователю, разместившему торрент файл.

Вверх