Loading...
Error

Самба / Samba (Оливье Накаш, Эрик Толедано) [2014 г., драма, комедия, BDRip 720p] Dub [Лицензия] + Original

Статистика раздачи
Размер:  7,84 GB   |    Зарегистрирован:  1 год 8 месяцев   |    Скачан:  6 раз

Полного источника не было: 6 дней

Сидов:  0  |  0 KB/s  ]   Личеров:  0  |  0 KB/s  ]

* - сиды/пиры с внешних источников

   
 
Автор Сообщение

Паукан Пол:Муж

31-Мар-2015 12:36

Самба / Samba


Название: Самба
Оригинальное название: Samba
Год выхода: 2014
Жанр: драма, комедия
Режиссёр: Оливье Накаш, Эрик Толедано
В главных ролях: Омар Си, Шарлотта Генсбур, Тахар Рахим, Изиа Ижлен, Исака Савадого, Элен Венсан, Янгар Фолл, Кристиана Милле, Жаклин Жеаннеф, Лия Кебеде

Описание:
Самба — сенегалец, живущий во Франции десять лет, но неудачи все еще преследуют его — он не может устроиться на хорошее место работы. Элис — руководитель высшего звена, буквально «сгорела» на работе. Самба всеми силами пытается получить документы, чтобы трудоустроиться, а Алиса ищет спасения от пустоты собственной жизни. Каждый из них ищет выход из сложившегося тупика, пока в один прекрасный день их судьбы не пересекаются. Между смехом и слезами их история прокладывает себе дорогу к счастью.



Выпущено: Франция / Quad Productions, Ten Films, Gaumont
Продолжительность: 01:58:51
Озвучивание: Дублированное [Лицензия]

Формат: MKV
Качество: BDRip 720p
Видео: MPEG-4 AVC, 8173 Кбит/с, 1280x692
Звук: Русский (AC3, 6 ch, 448 Кбит/с), французский (AC3, 6 ch, 640 Кбит/с)
Субтитры: Нет
Размер: 7.84 ГБ
Дополнительно: Сохранены оригинальный чаптеры, как и на Blu-Ray.
Скачать: Сэмпл

D:Samba.2014.D.BDRip.720p.mkv
Format : Matroska
Format version : Version 4 / Version 2
File size : 7.84 GiB
Duration : 1h 58mn
Overall bit rate : 9 448 Kbps
Movie name : Samba.2014.D.BDRip.720p
Encoded date : UTC 2015-03-28 08:12:03
Writing application : mkvmerge v7.7.0 ('Six Voices') 32bit built on Feb 28 2015 23:23:00
Writing library : libebml v1.3.1 + libmatroska v1.4.2
_STATISTICS_WRITING_APP : mkvmerge v7.7.0 ('Six Voices') 32bit built on Feb 28 2015 23:23:00
_STATISTICS_WRITING_DATE_UTC : 2015-03-28 08:12:03
_STATISTICS_TAGS : BPS DURATION NUMBER_OF_FRAMES NUMBER_OF_BYTES
DURATION : 01:58:51.104000000
NUMBER_OF_FRAMES : 222847
NUMBER_OF_BYTES : 399341824

Video
ID : 1
Format : AVC
Format/Info : Advanced Video Codec
Format profile : High@L4.1
Format settings, CABAC : Yes
Format settings, ReFrames : 9 frames
Codec ID : V_MPEG4/ISO/AVC
Duration : 1h 58mn
Bit rate : 8 172 Kbps
Width : 1 280 pixels
Height : 692 pixels
Display aspect ratio : 1.85:1
Frame rate mode : Constant
Frame rate : 24.000 fps
Color space : YUV
Chroma subsampling : 4:2:0
Bit depth : 8 bits
Scan type : Progressive
Bits/(Pixel*Frame) : 0.384
Stream size : 6.78 GiB (86%)
Title : Samba.2014.D.BDRip.720p.ELEKTRI4KA.uniongang.tv [3imeMachi9e]
Writing library : x264 core 142 r2409kMod d6b4e63
Encoding settings : cabac=1 / ref=9 / deblock=1:-3:-3 / analyse=0x3:0x133 / me=umh / subme=10 / psy=1 / fade_compensate=0.00 / psy_rd=1.00:0.00 / mixed_ref=1 / me_range=32 / chroma_me=1 / trellis=2 / 8x8dct=1 / cqm=0 / deadzone=21,11 / fast_pskip=0 / chroma_qp_offset=-2 / threads=6 / lookahead_threads=1 / sliced_threads=0 / nr=0 / decimate=0 / interlaced=0 / bluray_compat=0 / constrained_intra=0 / fgo=0 / bframes=8 / b_pyramid=2 / b_adapt=2 / b_bias=0 / direct=3 / weightb=1 / open_gop=0 / weightp=2 / keyint=250 / keyint_min=24 / scenecut=40 / intra_refresh=0 / rc=crf / mbtree=0 / crf=15.0000 / qcomp=0.60 / qpmin=0 / qpmax=69 / qpstep=4 / ip_ratio=1.35 / pb_ratio=1.25 / aq=3:0.85
Language : English
Default : Yes
Forced : No
Matrix coefficients : BT.709
Color range : Limited
_STATISTICS_WRITING_APP : mkvmerge v7.7.0 ('Six Voices') 32bit built on Feb 28 2015 23:23:00
_STATISTICS_WRITING_DATE_UTC : 2015-03-28 08:12:03
_STATISTICS_TAGS : BPS DURATION NUMBER_OF_FRAMES NUMBER_OF_BYTES
DURATION : 01:58:51.000000000
NUMBER_OF_FRAMES : 171144
NUMBER_OF_BYTES : 7450190071

Audio #1
ID : 2
Format : AC-3
Format/Info : Audio Coding 3
Mode extension : CM (complete main)
Format settings, Endianness : Big
Codec ID : A_AC3
Duration : 1h 58mn
Bit rate mode : Constant
Bit rate : 448 Kbps
Channel(s) : 6 channels
Channel positions : Front: L C R, Side: L R, LFE
Sampling rate : 48.0 KHz
Bit depth : 16 bits
Compression mode : Lossy
Stream size : 381 MiB (5%)
Title : Samba.2014.D.BDRip.720p.ELEKTRI4KA.uniongang.tv [3imeMachi9e]
Language : Russian
Default : Yes
Forced : No

Audio #2
ID : 3
Format : AC-3
Format/Info : Audio Coding 3
Mode extension : CM (complete main)
Format settings, Endianness : Big
Codec ID : A_AC3
Duration : 1h 58mn
Bit rate mode : Constant
Bit rate : 640 Kbps
Channel(s) : 6 channels
Channel positions : Front: L C R, Side: L R, LFE
Sampling rate : 48.0 KHz
Bit depth : 16 bits
Compression mode : Lossy
Stream size : 544 MiB (7%)
Title : Samba.2014.D.BDRip.720p.ELEKTRI4KA.uniongang.tv [3imeMachi9e]
Language : French
Default : No
Forced : No

Menu
00:00:00.000 : en:00:00:00.000
00:11:12.958 : en:00:11:12.958
00:19:54.833 : en:00:19:54.833
00:31:40.417 : en:00:31:40.417
00:40:49.750 : en:00:40:49.750
00:53:26.500 : en:00:53:26.500
01:01:21.208 : en:01:01:21.208
01:12:46.958 : en:01:12:46.958
01:23:59.667 : en:01:23:59.667
01:33:05.542 : en:01:33:05.542
01:42:50.917 : en:01:42:50.917
01:52:51.625 : en:01:52:51.625



pic pic pic
Для увеличения картинки щелкните мышкой по превью

Этот торрент недоступен для скачивания без регистрации, однако доступен по публичной magnet-ссылке (источники с публичных трекеров). Перед использованием ссылки прочтите, пожалуйста Пользовательское соглашение, а также как можно дольше оставайтесь на раздаче! Для того, чтобы скачать сам торрент-файл (который видит больше источников), а также для того, чтобы поблагодарить релизера, вам необходимо зарегистрироваться. Если регистрироваться лень - вы можете также попробовать скачать релиз по нашим партнерским ссылкам ниже.

[underverse.su].t53275.torrent
Трекер: Зарегистрирован   [ 31.03.2015 12:36 ]  

Статус: проверено (by Паукан at 31.03.2015 12:37)
Поблагодарили: 1 человек
Тип торрента: публичный - доступные источники с открытых трекеров: 
Размер: 7,84 GB (занимает 1,79 DVDR, для записи нужно 2 болванки DVDR/RW)
 
 
Похожие темы
Форум Тема Автор Торрент Отв. Посл. сооб.
Зарубежное кино [DVDRip, Low-Res HDRip, и т.д.] Самба / Samba (Оливье Накаш, Эрик Толедано) [2014 г., драма, комедия, HDRip] Dub [Лицензия] Паукан
101 | 3

0 | 391

14

31.03.2015 12:31

Зарубежное кино [DVDRip, Low-Res HDRip, и т.д.] Самба / Samba (Оливье Накаш, Эрик Толедано) [2014 г., драма, комедия, HDRip] Dub [Лицензия] Паукан
1 | 0

0 | 474

18

31.03.2015 12:48

Наше кино [HDDVDRip / BDRip / WEB-DL / HDTV 1080/720р] Самба / Samba (Оливье Накаш, Эрик Толедано) [2014 г., драма, комедия, BDRip 1080p] Dub [Лицензия] + Original + Sub (Fre) Паукан
11 | 0

0 | 566

0

31.03.2015 12:26


Яндекс.Метрика powered by Sphinx


В Н И М А Н И Е
Сайт не распространяет и не хранит электронные версии произведений, а лишь бесплатно и без коммерческой выгоды (не требуя взамен платы,
SMS и т.д.) предоставляет доступ к создаваемому пользователями каталогу ссылок на торрент-файлы, которые содержат только списки хеш-сумм.
Убедительная просьба с жалобами обращаться напрямую к пользователю, разместившему торрент файл.

Вверх