Loading...
Error

Ультиматум (1-4 серии из 4) (Игорь Драка) [2015 г., криминал, SatRip]

Статистика раздачи
Размер:  2,22 GB   |    Зарегистрирован:  1 год 8 месяцев   |    Скачан:  31 раз

Полного источника не было: 3 месяца 3 дня

Сидов:  0  |  0 KB/s  ]   Личеров:  0  |  0 KB/s  ]

* - сиды/пиры с внешних источников

   
 
Автор Сообщение

nemos Пол:Муж

27-Мар-2015 16:15

Ультиматум

Год выпуска: премьера (РФ) 27 марта 2015
Жанр: криминал
Страна: Россия
Режиссер: Игорь Драка
В ролях: Михаил Тарабукин, Гавриил Федотов, Евгений Бакалов, Дмитрий Сутырин, Владимир Постников, Эрик Кения, Кирилл Полухин, Сергей Апрельский, Аркадий Коваль, Артур Федынко, Светлана Бакулина, Вера Баханкова
Сюжет фильма:
Сергей Ярохин - старший следователь убойного отдела. Принципиальный и несгибаемый. Живущий ради правого дела и всегда готовый на риск. Его ненавидят и преступники, и нечистые на руку коллеги. Сергей Ярохин всегда доводил до конца самые сложные и опасные дела и никогда не боялся угроз. Во время одной из операций с участием ОМОН, которой Ярохин руководит лично, «берут» главаря банды наркодилеров, который пытается скрыться, прикрываясь своими помощниками. В итоге в тюрьме оказываются все: и мелкие распространители, и сам главарь преступной группировки, закоренелый бандит Анатолий Быков, или Бык.
Качество видео: SatRip

Продолжительность: 00:44:33 серия
Формат: AVI
Видео: XviD, 720x400, 1 603 kbps
Аудио: русский, AC3 2.0, 192 kbps

Код:

E:\Фильмы-1\Ulitimatum.2015.SATRip.Files-x\04.Ulitimatum.2015.SATRip.Files-x.avi
   General
      Complete name : E:\Фильмы-1\Ulitimatum.2015.SATRip.Files-x\04.Ulitimatum.2015.SATRip.Files-x.avi
      Format : AVI
      Format/Info : Audio Video Interleave
      File size : 576 MiB
      Duration : 44mn 33s
      Overall bit rate : 1 806 Kbps
      Writing application : Lavf53.19.0
      Writing library : VirtualDub build 35491/release
   Video #0
      ID : 0
      Format : MPEG-4 Visual
      Format profile : Advanced Simple@L5
      Format settings, BVOP : 1
      Format settings, QPel : No
      Format settings, GMC : No warppoints
      Format settings, Matrix : Custom
      Codec ID : XVID
      Codec ID/Hint : XviD
      Duration : 44mn 33s
      Bit rate : 1 603 Kbps
      Width : 720 pixels
      Height : 400 pixels
      Display aspect ratio : 16:9
      Frame rate : 25.000 fps
      Color space : YUV
      Chroma subsampling : 4:2:0
      Bit depth : 8 bits
      Scan type : Progressive
      Compression mode : Lossy
      Bits/(Pixel*Frame) : 0.223
      Stream size : 511 MiB (89%)
      Writing library : XviD 73
   Audio #1
      ID : 1
      Format : AC-3
      Format/Info : Audio Coding 3
      Mode extension : CM (complete main)
      Format settings, Endianness : Big
      Codec ID : 2000
      Duration : 44mn 33s
      Bit rate mode : Constant
      Bit rate : 192 Kbps
      Channel(s) : 2 channels
      Channel positions : Front: L R
      Sampling rate : 48.0 KHz
      Bit depth : 16 bits
      Compression mode : Lossy
      Stream size : 61.2 MiB (11%)
      Alignment : Aligned on interleaves
      Interleave, duration : 32 ms (0.80 video frame)
      Interleave, preload duration : 512 ms
picpicpicpicpicpicpicpic
Для увеличения картинки щелкните мышкой по превью

Этот торрент недоступен для скачивания без регистрации, однако доступен по публичной magnet-ссылке (источники с публичных трекеров). Перед использованием ссылки прочтите, пожалуйста Пользовательское соглашение, а также как можно дольше оставайтесь на раздаче! Для того, чтобы скачать сам торрент-файл (который видит больше источников), а также для того, чтобы поблагодарить релизера, вам необходимо зарегистрироваться. Если регистрироваться лень - вы можете также попробовать скачать релиз по нашим партнерским ссылкам ниже.

[underverse.su].t53164.torrent
Трекер: Зарегистрирован   [ 27.03.2015 16:15 ]  

Статус: проверено (by nemos at 27.03.2015 16:33)
Поблагодарили: 1 человек
Тип торрента: публичный - доступные источники с открытых трекеров: 
Размер: 2,22 GB (занимает 0,51 DVDR, для записи нужно 1 болванка DVDR/RW)
 
 
Похожие темы
Форум Тема Автор Торрент Отв. Посл. сооб.
Зарубежное кино [DVDRip, Low-Res HDRip, и т.д.] Ультиматум Борна / The Bourne Ultimatum (Пол Гринграсс / Paul Greengrass) [2007 г., боевик, триллер, криминал, BDRip] Dub 90ytr90
20 | 0

0 | 217

13

31.01.2015 21:35


Яндекс.Метрика powered by Sphinx


В Н И М А Н И Е
Сайт не распространяет и не хранит электронные версии произведений, а лишь бесплатно и без коммерческой выгоды (не требуя взамен платы,
SMS и т.д.) предоставляет доступ к создаваемому пользователями каталогу ссылок на торрент-файлы, которые содержат только списки хеш-сумм.
Убедительная просьба с жалобами обращаться напрямую к пользователю, разместившему торрент файл.

Вверх