Loading...
Error

Частные военные компании [2015 г., документальный, HDTVRip]

Статистика раздачи
Размер:  615 MB   |    Зарегистрирован:  1 год 8 месяцев   |    Скачан:  25 раз

Полного источника не было: 23 часа

Сидов:  0  |  0 KB/s  ]   Личеров:  0  |  0 KB/s  ]

* - сиды/пиры с внешних источников

   
 
Автор Сообщение

матроскин Пол:Муж

27-Мар-2015 14:33

Частные военные компании


Год выпуска: 2015
Жанр: документальный
Страна: Россия
Выпущено: Красное Тв
Сюжет фильма:
Получается уже и нет такой профессии -Родину Защищать, за то есть кому зарабатывать на умении владеть оружием, защищать чью то собственность, недвижимость и наворованный капитал.
Качество видео: HDTVRip

Продолжительность: 00:22:46
Формат: avi
Видео: DivX 4, 854x480, 3508 kbps
Аудио: русский, оригинал, MP3 2.0, 256 kbps

Код:

General
Complete name                    : C:\Users\Ohrana\Desktop\Частные военные компании.avi
Format                           : AVI
Format/Info                      : Audio Video Interleave
File size                        : 615 MiB
Duration                         : 22mn 46s
Overall bit rate                 : 3 776 Kbps
Writing application              : Lavf52.93.0

Video
ID                               : 0
Format                           : MPEG-4 Visual
Format profile                   : Simple@L1
Format settings, BVOP            : No
Format settings, QPel            : No
Format settings, GMC             : No warppoints
Format settings, Matrix          : Default (H.263)
Codec ID                         : DIVX
Codec ID/Info                    : Project Mayo
Codec ID/Hint                    : DivX 4
Duration                         : 22mn 46s
Bit rate                         : 3 508 Kbps
Width                            : 854 pixels
Height                           : 480 pixels
Display aspect ratio             : 16/9
Frame rate                       : 25.000 fps
Resolution                       : 24 bits
Colorimetry                      : 4:2:0
Scan type                        : Progressive
Bits/(Pixel*Frame)               : 0.342
Stream size                      : 571 MiB (93%)
Writing library                  : Lavc52.108.0

Audio
ID                               : 1
Format                           : MPEG Audio
Format version                   : Version 1
Format profile                   : Layer 3
Codec ID                         : 55
Codec ID/Hint                    : MP3
Duration                         : 22mn 45s
Bit rate mode                    : Constant
Bit rate                         : 256 Kbps
Channel(s)                       : 2 channels
Sampling rate                    : 44.1 KHz
Resolution                       : 16 bits
Stream size                      : 41.7 MiB (7%)
Alignment                        : Aligned on interleaves
Interleave, duration             : 26 ms (0.65 video frame)
Interleave, preload duration     : 52 ms
Writing library                  : LAME3.98.4

picpicpicpicpicpic
Для увеличения картинки щелкните мышкой по превью

Этот торрент недоступен для скачивания без регистрации, однако доступен по публичной magnet-ссылке (источники с публичных трекеров). Перед использованием ссылки прочтите, пожалуйста Пользовательское соглашение, а также как можно дольше оставайтесь на раздаче! Для того, чтобы скачать сам торрент-файл (который видит больше источников), а также для того, чтобы поблагодарить релизера, вам необходимо зарегистрироваться. Если регистрироваться лень - вы можете также попробовать скачать релиз по нашим партнерским ссылкам ниже.

[underverse.su].t53195.torrent
Трекер: Зарегистрирован   [ 30.03.2015 07:01 ]  

Статус: проверено (by матроскин at 30.03.2015 07:01)
Поблагодарили: 3 человека
Тип торрента: публичный - доступные источники с открытых трекеров: 
Размер: 615 MB (занимает 0,14 DVDR, для записи нужно 1 болванка DVDR/RW)
 
 


Последний раз редактировалось: матроскин (30.03.2015 07:01), всего редактировалось 1 раз

матроскин Пол:Муж

27-Мар-2015 18:24



матроскин Пол:Муж

30-Мар-2015 19:43


Яндекс.Метрика powered by Sphinx


В Н И М А Н И Е
Сайт не распространяет и не хранит электронные версии произведений, а лишь бесплатно и без коммерческой выгоды (не требуя взамен платы,
SMS и т.д.) предоставляет доступ к создаваемому пользователями каталогу ссылок на торрент-файлы, которые содержат только списки хеш-сумм.
Убедительная просьба с жалобами обращаться напрямую к пользователю, разместившему торрент файл.

Вверх